Today is a free download without charge Download

Десять заповедей / The Ten Commandments (Сесил Б. ДеМилль / Cecil B. DeMille) [1923, США, драма, BDRip 720p] [Немое кино] интертитры (eng) Sub (rus, fre, pt, spa)

Reply to topic
 
Author
Message

Omen ®

Longevity: 8 years 5 months

Posts: 181087

Торрент-статистика

Post 14-Jan-2013 23:04

[Quote]

Десять заповедей /
The Ten Commandments
Страна: США
Студия: Famous Players-Lasky Corporation
Жанр: драма
Год выпуска: 1923
Продолжительность: 02:16:12
Интертитры: английские
Перевод: Субтитры
Cубтитры: русские, французские, португальские, испанские
Аудиодорожка: музыкальное сопровождение (духовой орган, Гейлорд Картер)
Режиссер: Сесил Б. ДеМилль / Cecil B. DeMille
В ролях: Теодор Робертс (Theodore Roberts), Шарль де Рошфор (Charles de Rochefort), Эстелль Тейлор (Estelle Taylor), Пат Мур (Pat Moore), Джулия Фэй (Julia Faye), Джеймс Нилл (James Neill), Лоусон Батт (Lawson Butt), Клэренс Бертон (Clarence Burton), Ноубл Джонсон (Noble Johnson), Эдит Чапман (Edythe Chapman), Ричард Дикс (Richard Dix), Род Ла Рок (Rod La Rocque), Леатрис Джой (Leatrice Joy), Нита Налди (Nita Naldi), Роберт Эдесон (Robert Edeson) и др.
imdb
Описание: Сесил Б. Де Милль дважды обращался к библейской истории исхода народа израильского из Египта – в 1923-ем и 1956-ом годах. В раннем немом фильме этот сюжет излагается в течение первых 50 минут, с подлинно голливудским размахом, с невероятной массовкой, в масшабнейших декорациях... Во второй части мы переносимся в современность, вернее, в 20-е годы. Глубоко верующая мать и два её сына. Джон разделяет религиозные взгляды своей матери. Дэн скептически относится к религии в целом и к Десяти Заповедям в частности. Как далеко способно зайти его неверие и к каким результатам оно в итоге приведет?.. Нравоучительная основа этой истории не мешает однако следить за сложным, многоступенчатым, эмоциональным сюжетом. Де Миллю удаётся "сочетать верность христианской морали с аппетитным изображением греха"...
Интересно:
"45-й фильм Де Милля и 1-й его фильм по библейским мотивам. Никогда прежде Де Милль не получал в свое распоряжение столь огромный бюджет. Стоимость фильма, выросшая по ходу съемок с 600000 до 1200000 долларов, вызвала ссору с Адолфом Зукором и последующий разрыв отношений. Несмотря на масштабность бюджета, Де Милль не смог снимать в тех местах, где происходили описываемые события (но он сделал это в 1956 году). Ему пришлось перевозить 2500 статистов и 4000 животных (в том числе 200 верблюдов) в район Гуадалупе в Калифорнии, в пустыню Мохаве и Балбоа-Бич. Гигантская армия жила абсолютно самодостаточно: в ее распоряжении были 3 дюжины коров, дававших молоко, полевой госпиталь, телефонная станция, джазовый оркестр и ресторан, способный готовить по 7500 обедов в день."
Жак Лурселль "Авторская энциклопедия фильмов"
Доп. информация: Релиз от . За исходник спасибо xamster. Русские субтитры: kintelen; редакция и ретайминг – antikillW.
Тип релиза: BDRip 720p by Skazhutin
Сэмпл: http://multi-up.com/816836
Контейнер: MKV
Видео: [email protected], 960x720 at 23.976 fps, ~8524 kbps
Аудио 1: Dolby AC3 2.0, 48 kHz, 256 kbps — Pipe organ score by Gaylord Carter
Аудио 2: Dolby AC3 2.0, 48 kHz, 192 kbps — Commentary by Katherine Orrison (in english)
Формат субтитров: softsub (SRT)
Навигация по главам: есть

MediaInfo

General
Unique ID : 174094250398953895371523889702217065836 (0x82F9553F6A76DDA7AD9AA8A5026E256C)
Complete name : The.Ten.Commandments.1923.720p.BluRay.AC3.x264.HDCLUB-Skazhutin.mkv
Format : Matroska
Format version : Version 4 / Version 2
File size : 8.54 GiB
Duration : 2h 16mn
Overall bit rate : 8 975 Kbps
Movie name : The Ten Commandments (1923) - Release for HDCLUB by Skazhutin
Encoded date : UTC 2010-02-22 21:41:31
Writing application : mkvmerge v5.9.0 ('On The Loose') built on Dec 9 2012 15:37:01
Writing library : libebml v1.3.0 + libmatroska v1.4.0
Attachment : Yes / Yes
Video
ID : 1
Format : AVC
Format/Info : Advanced Video Codec
Format profile : [email protected]
Format settings, CABAC : Yes
Format settings, ReFrames : 12 frames
Codec ID : V_MPEG4/ISO/AVC
Duration : 2h 16mn
Bit rate : 8 349 Kbps
Width : 960 pixels
Height : 720 pixels
Display aspect ratio : 4:3
Frame rate : 23.976 fps
Color space : YUV
Chroma subsampling : 4:2:0
Bit depth : 8 bits
Scan type : Progressive
Bits/(Pixel*Frame) : 0.504
Stream size : 7.94 GiB (93%)
Title : Release for HDCLUB
Writing library : x264 core 129 r2230kMod 1cffe9f
Encoding settings : cabac=1 / ref=12 / deblock=1:-3:-3 / analyse=0x3:0x113 / me=umh / subme=11 / psy=1 / fade_compensate=0.00 / psy_rd=1.00:0.00 / mixed_ref=1 / me_range=48 / chroma_me=1 / trellis=2 / 8x8dct=1 / cqm=0 / deadzone=21,11 / fast_pskip=1 / chroma_qp_offset=-2 / threads=12 / lookahead_threads=2 / sliced_threads=0 / nr=0 / decimate=1 / interlaced=0 / bluray_compat=0 / constrained_intra=0 / bframes=12 / b_pyramid=2 / b_adapt=2 / b_bias=0 / direct=3 / weightb=1 / open_gop=0 / weightp=2 / keyint=250 / keyint_min=23 / scenecut=40 / intra_refresh=0 / rc_lookahead=40 / rc=crf / mbtree=0 / crf=16.0000 / qcomp=0.60 / qpmin=0 / qpmax=69 / qpstep=4 / vbv_maxrate=50000 / vbv_bufsize=62500 / crf_max=0.0 / nal_hrd=none / ip_ratio=1.40 / pb_ratio=1.30 / aq=1:1.00
Language : English
Default : Yes
Forced : No
Matrix coefficients : BT.709-5, BT.1361, IEC 61966-2-4 709, SMPTE RP177
Audio #1
ID : 2
Format : AC-3
Format/Info : Audio Coding 3
Mode extension : CM (complete main)
Format settings, Endianness : Big
Codec ID : A_AC3
Duration : 2h 16mn
Bit rate mode : Constant
Bit rate : 256 Kbps
Channel(s) : 2 channels
Channel positions : Front: L R
Sampling rate : 48.0 KHz
Bit depth : 16 bits
Compression mode : Lossy
Stream size : 249 MiB (3%)
Title : Pipe organ score by Gaylord Carter
Language : English
Default : Yes
Forced : No
Audio #2
ID : 3
Format : AC-3
Format/Info : Audio Coding 3
Mode extension : CM (complete main)
Format settings, Endianness : Big
Codec ID : A_AC3
Duration : 2h 16mn
Bit rate mode : Constant
Bit rate : 192 Kbps
Channel(s) : 2 channels
Channel positions : Front: L R
Sampling rate : 48.0 KHz
Bit depth : 16 bits
Compression mode : Lossy
Stream size : 187 MiB (2%)
Title : Commentary by Katherine Orrison, author of "Written in Stone: Making Cecil B. DeMille's Epic, The Ten Commandments"
Language : English
Default : No
Forced : No
Text #1
ID : 4
Format : UTF-8
Codec ID : S_TEXT/UTF8
Codec ID/Info : UTF-8 Plain Text
Language : Russian
Default : Yes
Forced : No
Text #2
ID : 5
Format : UTF-8
Codec ID : S_TEXT/UTF8
Codec ID/Info : UTF-8 Plain Text
Language : French
Default : No
Forced : No
Text #3
ID : 6
Format : UTF-8
Codec ID : S_TEXT/UTF8
Codec ID/Info : UTF-8 Plain Text
Language : Portuguese
Default : No
Forced : No
Text #4
ID : 7
Format : UTF-8
Codec ID : S_TEXT/UTF8
Codec ID/Info : UTF-8 Plain Text
Language : Spanish
Default : No
Forced : No
Menu
00:00:00.000 : en:Chapter 1
00:08:12.450 : en:Chapter 2
00:13:03.866 : en:Chapter 3
00:16:57.641 : en:Chapter 4
00:26:04.563 : en:Chapter 5
00:36:30.688 : en:Chapter 6
00:50:10.632 : en:Chapter 7
00:55:33.997 : en:Chapter 8
01:02:56.606 : en:Chapter 9
01:14:52.446 : en:Chapter 10
01:22:34.783 : en:Chapter 11
01:33:22.680 : en:Chapter 12
01:45:09.428 : en:Chapter 13
01:56:56.009 : en:Chapter 14
02:12:21.892 : en:Chapter 15

Скриншоты: рип vs исходник





Other forum [Profile] [PM]
Display posts from previous:    
Reply to topic

The time now is: Today 12:04

All times are GMT + 3 Hours



You cannot post new topics in this forum
You cannot reply to topics in this forum
You cannot edit your posts in this forum
You cannot delete your posts in this forum
You cannot vote in polls in this forum
You cannot attach files in this forum
You cannot download files in this forum