Today is a free download without charge Download

Вадим Шлахтер | Личностный рост - формула успеха [2010] WEB-DLRip

Reply to topic
 
Author
Message

Omen ®

Longevity: 7 years 10 months

Posts: 181087

Торрент-статистика

Post 14-Jan-2013 21:03

[Quote]

-Вадим Шлахтер | Личностный рост - формула успеха [2010] WEB-DLRip- Автор: Вадим Шлахтер
Название: Личностный рост - формула успеха
Год выпуска: 2010
Жанр: саморазвитие, видео-обучение
Качество видео: WEB-DLRip
Продолжительность: 00:30:17
Видеокодек: H.263
Битрейт видео: ~781 Кбит/сек
Размер кадра: 640х360
Аудиокодек: MP3
Битрейт аудио: 129 Кбит/сек
Описание:
Уроки представляют универсальную формулу успеха, удачи . Первое, нужно видеть цель, видеть путь к этой цели и быть готовым напрягаться и не взирать на преграды. Что такое готовность? Готовность – это наличие некоторых наработанных алгоритмов и способность пустить их в ход. Намерение – это взятая к исполнению установка. И самодисциплина, то есть готовность себя заставлять. Если это все есть, то это и есть универсальная формула успеха. Если нет чего-то, то надо развивать.
Содержание :
1.составляющие цели
2.намерение
3.целеполагание
4.готовность
5.прокачка
6.самодисциплина
7.технология внутренней силы

Если не открывается

пробуем VLC media player

MediaInfo

Формат : Flash Video
Размер файла : 21,3 Мбайт
Продолжительность : 3 м. 23 с.
Общий поток : 879 Кбит/сек
Видео
Формат : H.263
Идентификатор кодека : 2
Идентификатор кодека/Подсказка : Sorenson
Продолжительность : 3 м. 23 с.
Битрейт : 781 Кбит/сек
Ширина : 640 пикс.
Высота : 360 пикс.
Соотношение сторон : 16:9
Режим частоты кадров : Постоянный
Частота кадров : 29,970 кадр/сек
Битовая глубина : 8 бит
Метод сжатия : С потерями
Бит/(Пиксели*Кадры) : 0.113
Размер потока : 18,9 Мбайт (89%)
Аудио
Формат : MPEG Audio
Версия формата : Version 1
Профиль формата : Layer 3
Режим : Joint stereo
Расширение режима : MS Stereo
Идентификатор кодека : 2
Идентификатор кодека/Подсказка : MP3
Продолжительность : 3 м. 23 с.
Вид битрейта : Переменный
Битрейт : 129 Кбит/сек
Канал(ы) : 2 канала(ов)
Частота : 44,1 КГц
Метод сжатия : С потерями
Размер потока : 3,12 Мбайт (15%)
Общее
Полное имя : D:\INTRRNET\шлахтер-видеоуроки\2.намерение.flv
Формат : Flash Video
Размер файла : 28,1 Мбайт
Продолжительность : 4 м. 24 с.
Общий поток : 891 Кбит/сек
Видео
Формат : H.263
Идентификатор кодека : 2
Идентификатор кодека/Подсказка : Sorenson
Продолжительность : 4 м. 24 с.
Битрейт : 781 Кбит/сек
Ширина : 640 пикс.
Высота : 360 пикс.
Соотношение сторон : 16:9
Режим частоты кадров : Постоянный
Частота кадров : 29,970 кадр/сек
Битовая глубина : 8 бит
Метод сжатия : С потерями
Бит/(Пиксели*Кадры) : 0.113
Размер потока : 24,7 Мбайт (88%)
Аудио
Формат : MPEG Audio
Версия формата : Version 1
Профиль формата : Layer 3
Режим : Joint stereo
Расширение режима : MS Stereo
Идентификатор кодека : 2
Идентификатор кодека/Подсказка : MP3
Продолжительность : 4 м. 24 с.
Вид битрейта : Переменный
Битрейт : 129 Кбит/сек
Канал(ы) : 2 канала(ов)
Частота : 44,1 КГц
Метод сжатия : С потерями
Размер потока : 4,06 Мбайт (14%)
Общее
Полное имя : D:\INTRRNET\шлахтер-видеоуроки\3.целеполагание.flv
Формат : Flash Video
Размер файла : 28,4 Мбайт
Продолжительность : 4 м. 27 с.
Общий поток : 889 Кбит/сек
Видео
Формат : H.263
Идентификатор кодека : 2
Идентификатор кодека/Подсказка : Sorenson
Продолжительность : 4 м. 27 с.
Битрейт : 781 Кбит/сек
Ширина : 640 пикс.
Высота : 360 пикс.
Соотношение сторон : 16:9
Режим частоты кадров : Постоянный
Частота кадров : 29,970 кадр/сек
Битовая глубина : 8 бит
Метод сжатия : С потерями
Бит/(Пиксели*Кадры) : 0.113
Размер потока : 24,9 Мбайт (88%)
Аудио
Формат : MPEG Audio
Версия формата : Version 1
Профиль формата : Layer 3
Режим : Joint stereo
Расширение режима : MS Stereo
Идентификатор кодека : 2
Идентификатор кодека/Подсказка : MP3
Продолжительность : 4 м. 27 с.
Вид битрейта : Переменный
Битрейт : 129 Кбит/сек
Канал(ы) : 2 канала(ов)
Частота : 44,1 КГц
Метод сжатия : С потерями
Размер потока : 4,11 Мбайт (14%)
Общее
Полное имя : D:\INTRRNET\шлахтер-видеоуроки\4.готовность.flv
Формат : Flash Video
Размер файла : 29,5 Мбайт
Продолжительность : 4 м. 38 с.
Общий поток : 891 Кбит/сек
Видео
Формат : H.263
Идентификатор кодека : 2
Идентификатор кодека/Подсказка : Sorenson
Продолжительность : 4 м. 38 с.
Битрейт : 781 Кбит/сек
Ширина : 640 пикс.
Высота : 360 пикс.
Соотношение сторон : 16:9
Режим частоты кадров : Постоянный
Частота кадров : 29,970 кадр/сек
Битовая глубина : 8 бит
Метод сжатия : С потерями
Бит/(Пиксели*Кадры) : 0.113
Размер потока : 25,9 Мбайт (88%)
Аудио
Формат : MPEG Audio
Версия формата : Version 1
Профиль формата : Layer 3
Режим : Joint stereo
Расширение режима : MS Stereo
Идентификатор кодека : 2
Идентификатор кодека/Подсказка : MP3
Продолжительность : 4 м. 38 с.
Вид битрейта : Переменный
Битрейт : 129 Кбит/сек
Канал(ы) : 2 канала(ов)
Частота : 44,1 КГц
Метод сжатия : С потерями
Размер потока : 4,27 Мбайт (14%)
Общее
Полное имя : D:\INTRRNET\шлахтер-видеоуроки\5.прокачка.flv
Формат : Flash Video
Размер файла : 26,3 Мбайт
Продолжительность : 4 м. 10 с.
Общий поток : 879 Кбит/сек
Видео
Формат : H.263
Идентификатор кодека : 2
Идентификатор кодека/Подсказка : Sorenson
Продолжительность : 4 м. 10 с.
Битрейт : 781 Кбит/сек
Ширина : 640 пикс.
Высота : 360 пикс.
Соотношение сторон : 16:9
Режим частоты кадров : Постоянный
Частота кадров : 29,970 кадр/сек
Битовая глубина : 8 бит
Метод сжатия : С потерями
Бит/(Пиксели*Кадры) : 0.113
Размер потока : 23,4 Мбайт (89%)
Аудио
Формат : MPEG Audio
Версия формата : Version 1
Профиль формата : Layer 3
Режим : Joint stereo
Расширение режима : MS Stereo
Идентификатор кодека : 2
Идентификатор кодека/Подсказка : MP3
Продолжительность : 4 м. 10 с.
Вид битрейта : Переменный
Битрейт : 129 Кбит/сек
Канал(ы) : 2 канала(ов)
Частота : 44,1 КГц
Метод сжатия : С потерями
Размер потока : 3,85 Мбайт (15%)
Общее
Полное имя : D:\INTRRNET\шлахтер-видеоуроки\6.самодисциплина.flv
Формат : Flash Video
Размер файла : 33,3 Мбайт
Продолжительность : 5 м. 15 с.
Общий поток : 886 Кбит/сек
Видео
Формат : H.263
Идентификатор кодека : 2
Идентификатор кодека/Подсказка : Sorenson
Продолжительность : 5 м. 15 с.
Битрейт : 781 Кбит/сек
Ширина : 640 пикс.
Высота : 360 пикс.
Соотношение сторон : 16:9
Режим частоты кадров : Постоянный
Частота кадров : 29,970 кадр/сек
Битовая глубина : 8 бит
Метод сжатия : С потерями
Бит/(Пиксели*Кадры) : 0.113
Размер потока : 29,4 Мбайт (88%)
Аудио
Формат : MPEG Audio
Версия формата : Version 1
Профиль формата : Layer 3
Режим : Joint stereo
Расширение режима : MS Stereo
Идентификатор кодека : 2
Идентификатор кодека/Подсказка : MP3
Продолжительность : 5 м. 15 с.
Вид битрейта : Переменный
Битрейт : 128 Кбит/сек
Канал(ы) : 2 канала(ов)
Частота : 44,1 КГц
Метод сжатия : С потерями
Размер потока : 4,80 Мбайт (14%)
Общее
Полное имя : D:\INTRRNET\шлахтер-видеоуроки\7.технология внутренней силы.flv
Формат : Flash Video
Размер файла : 25,5 Мбайт
Продолжительность : 4 м. 0 с.
Общий поток : 887 Кбит/сек
Видео
Формат : H.263
Идентификатор кодека : 2
Идентификатор кодека/Подсказка : Sorenson
Продолжительность : 4 м. 0 с.
Битрейт : 781 Кбит/сек
Ширина : 640 пикс.
Высота : 360 пикс.
Соотношение сторон : 16:9
Режим частоты кадров : Постоянный
Частота кадров : 29,970 кадр/сек
Битовая глубина : 8 бит
Метод сжатия : С потерями
Бит/(Пиксели*Кадры) : 0.113
Размер потока : 22,4 Мбайт (88%)
Аудио
Формат : MPEG Audio
Версия формата : Version 1
Профиль формата : Layer 3
Режим : Joint stereo
Расширение режима : MS Stereo
Идентификатор кодека : 2
Идентификатор кодека/Подсказка : MP3
Продолжительность : 4 м. 0 с.
Вид битрейта : Переменный
Битрейт : 128 Кбит/сек
Канал(ы) : 2 канала(ов)
Частота : 44,1 КГц
Метод сжатия : С потерями
Размер потока : 3,67 Мбайт (14%)
Other forum [Profile] [PM]
Similar theme
Forum Topic Author Torrent Replies Last Post
./templates/default/images/folder_dl.gif Философия, Религия, Эзотерика Вадим Зеланд | О чем не сказала Тафти (2019) [FB2, EPUB] }{@R0N
1 | 0

0 | 1381

4

2019-01-20 20:09
}{@R0N Latest
Display posts from previous:    
Reply to topic

The time now is: Today 17:24

All times are GMT + 3 Hours



You cannot post new topics in this forum
You cannot reply to topics in this forum
You cannot edit your posts in this forum
You cannot delete your posts in this forum
You cannot vote in polls in this forum
You cannot attach files in this forum
You cannot download files in this forum