Today is a free download without charge Download

Олег Горячо | Идеальный Мужчина: узнай, кого любят девушки. [2009] CamRip

Reply to topic
 
Author
Message

Omen ®

Longevity: 7 years 10 months

Posts: 181087

Торрент-статистика

Post 14-Jan-2013 21:03

[Quote]

-Олег Горячо | Идеальный Мужчина: узнай, кого любят девушки. [2009] CamRip- Автор (режиссер): Олег Горячо
Название: Идеальный Мужчина: узнай, кого любят девушки.
Год выпуска: 2009
Жанр: пикап, соблазнение, психология.
Качество видео: CamRip
Продолжительность: 08:52:00
Видеокодек: MPEG-4 AVC/H.264
Битрейт видео: ~71,9 Кбит/сек
Размер кадра: 352x288
Аудиокодек: MP3
Битрейт аудио: 96,0 Кбит/сек
Описание:
"Цель этого проекта - передать мой опыт красивого соблазнения. Чтобы от знакомства до секса все было идеально и твоя девушка находилась на 7м небе от счастья, что проводит время рядом с таким мужчиной." Подробнее можете прочитать на страничке курса - flirtmedia.ru. Помимо видео файлов в раздачу включена pdf книга Олега, что-то вроде «для заметок».
+Рабочая тетрадь (pdf)

Диск 1 - Фундамент успехаДиск

«Твоя сексуальность»
«Кого любят женщины?»
«Мужские качества»
«Эмоциональные состояния»
«Фундамент успеха»
«Почувствуй себя!»
«Раскрепощение»
«Ощущения тела»
«Упражнение: Замедление»
«Эффект после упражнения»
«Здоровое питание»

Диск 2 - Развитие харизмы

«Твой голос»
«Сила голоса»
«Артикуляция»
«Дыхательная гимнастика»
«Проработка мимики»
«Обаятельная улыбка»
« Игра взгядов»
«Упражнения для осанки»
«Осознанность»

Диск 3 - Красота мужчины

«Опрятность и одежда»
«Внешний вид»
«Гармония в одежде»
«Гид по стилю»
«Шоппинг»
«Ухоженность»
«Чистая кожа»
«Красивые руки»

Диск 4 - Как познакомиться?

«Основы успеха»
«Создаем моменты»
«Не упускай шанс
«Авто-знакомства»
«Твоя главная цель»
«Популярные девушки»
«Как вызвать инициативу»
«Девушка c парнем»
«Ты другой!»
«Клубные знакомства»

Диск 5 - Незабываемое свидание

«Место встречи»
«О чем говорить?»
«Сближение с девушкой»
«Чувствуешь? Скажи!»
«Безотказное приглашение»
«Уединение»
«Эксклюзивность
«Секс будет!»

Диск 6 - Решающие мелочи

«Тонкие комплименты»
«Эмоциональные разговоры»
«ЕЕ чувства»
«Твой образ»
«Самоощущение»
«Внутренняя сила»
«Бонус по энергетике»

Диск 7 - Вкусный секс

«Начало вкусного секса»
«Отказы в сексе»
«Атмосфера, обстановка»
«Механизм желания»
«Говорим об этом!»
«Прикосновения»
«Возбуждающее дыхание»
«Раскрываем девушку»
«Чувствительность
«Волшебное слово»
«О минете»
«Развратные команды»
«Игры языком»
«Миссионерка»
«Асфикция
«Она сверху»
«Плохая девочка»
«Доминирование»
«После секса»

Диск 8 - Идеальный любовник

«Даосские техники»
«Возможности энергетики»
«Бонус фишки
«Пролонгация секса»
«Секс с двумя»
«Групповой секс»
«Она тебя запомнит»
«Школа для практик?»
«Энергетика чувствительности»
«Добавь остроты»
«Найди себя»
«Резонанс и ласки»
«Сделай мне больно!»

MediaInfo

Формат : AVI
Формат/Информация : Audio Video Interleave
Размер файла : 66,0 Мбайт
Продолжительность : 51 м.
Общий поток : 178 Кбит/сек
Видео
Идентификатор : 0
Формат : AVC
Формат/Информация : Advanced Video Codec
Профиль формата : [url=mailto:[email protected]][email protected][/url]
Параметр CABAC формата : Да
Параметр ReFrames формата : 4 кадры
Идентификатор кодека : H264
Продолжительность : 51 м.
Битрейт : 71,9 Кбит/сек
Ширина : 352 пикс.
Высота : 288 пикс.
Соотношение сторон : 1,222
Частота кадров : 25,000 кадр/сек
Стандарт вещания : PAL
Цветовое пространство : YUV
Подвыборка цветности : 4:2:0
Битовая глубина : 8 бит
Тип развёртки : Прогрессивная
Бит/(Пиксели*Кадры) : 0.028
Размер потока : 26,7 Мбайт (40%)
Библиотека кодирования : x264 core 112 r1867bm 22bfd31
Настройки программы : cabac=1 / ref=3 / deblock=1:0:0 / analyse=0x3:0x113 / me=hex / subme=7 / psy=1 / psy_rd=1.00:0.00 / mixed_ref=1 / me_range=16 / chroma_me=1 / trellis=1 / 8x8dct=1 / cqm=0 / deadzone=21,11 / fast_pskip=1 / chroma_qp_offset=-2 / threads=6 / sliced_threads=0 / nr=0 / decimate=1 / interlaced=0 / constrained_intra=0 / bframes=3 / b_pyramid=2 / b_adapt=1 / b_bias=0 / direct=1 / weightb=1 / open_gop=0 / weightp=2 / keyint=250 / keyint_min=25 / scenecut=40 / intra_refresh=0 / rc_lookahead=40 / rc=crf / mbtree=1 / crf=30.1 / qcomp=0.60 / qpmin=0 / qpmax=51 / qpstep=4 / ip_ratio=1.40 / aq=1:1.00
Аудио
Идентификатор : 1
Формат : MPEG Audio
Версия формата : Version 1
Профиль формата : Layer 3
Идентификатор кодека : 55
Идентификатор кодека/Подсказка : MP3
Продолжительность : 51 м.
Вид битрейта : Постоянный
Битрейт : 96,0 Кбит/сек
Канал(ы) : 2 канала(ов)
Частота : 44,1 КГц
Метод сжатия : С потерями
Размер потока : 35,6 Мбайт (54%)
Выравнивание : Разделение по промежуткам
Продолжительность промежутка : 40 мс. (1,00 видеокадр)
Время предзагрузки промежутка : 1894 ms
Общее
Формат : AVI
Формат/Информация : Audio Video Interleave
Размер файла : 68,4 Мбайт
Продолжительность : 54 м.
Общий поток : 177 Кбит/сек
Видео
Идентификатор : 0
Формат : AVC
Формат/Информация : Advanced Video Codec
Профиль формата : [url=mailto:[email protected]][email protected][/url]
Параметр CABAC формата : Да
Параметр ReFrames формата : 4 кадры
Идентификатор кодека : H264
Продолжительность : 54 м.
Битрейт : 71,0 Кбит/сек
Ширина : 352 пикс.
Высота : 288 пикс.
Соотношение сторон : 1,222
Частота кадров : 25,000 кадр/сек
Стандарт вещания : PAL
Цветовое пространство : YUV
Подвыборка цветности : 4:2:0
Битовая глубина : 8 бит
Тип развёртки : Прогрессивная
Бит/(Пиксели*Кадры) : 0.028
Размер потока : 27,4 Мбайт (40%)
Библиотека кодирования : x264 core 112 r1867bm 22bfd31
Настройки программы : cabac=1 / ref=3 / deblock=1:0:0 / analyse=0x3:0x113 / me=hex / subme=7 / psy=1 / psy_rd=1.00:0.00 / mixed_ref=1 / me_range=16 / chroma_me=1 / trellis=1 / 8x8dct=1 / cqm=0 / deadzone=21,11 / fast_pskip=1 / chroma_qp_offset=-2 / threads=6 / sliced_threads=0 / nr=0 / decimate=1 / interlaced=0 / constrained_intra=0 / bframes=3 / b_pyramid=2 / b_adapt=1 / b_bias=0 / direct=1 / weightb=1 / open_gop=0 / weightp=2 / keyint=250 / keyint_min=25 / scenecut=40 / intra_refresh=0 / rc_lookahead=40 / rc=crf / mbtree=1 / crf=30.1 / qcomp=0.60 / qpmin=0 / qpmax=51 / qpstep=4 / ip_ratio=1.40 / aq=1:1.00
Аудио
Идентификатор : 1
Формат : MPEG Audio
Версия формата : Version 1
Профиль формата : Layer 3
Идентификатор кодека : 55
Идентификатор кодека/Подсказка : MP3
Продолжительность : 54 м.
Вид битрейта : Постоянный
Битрейт : 96,0 Кбит/сек
Канал(ы) : 2 канала(ов)
Частота : 44,1 КГц
Метод сжатия : С потерями
Размер потока : 37,1 Мбайт (54%)
Выравнивание : Разделение по промежуткам
Продолжительность промежутка : 40 мс. (1,00 видеокадр)
Время предзагрузки промежутка : 1891 ms
Общее
Формат : AVI
Формат/Информация : Audio Video Interleave
Размер файла : 74,9 Мбайт
Продолжительность : 1 ч. 6 м.
Общий поток : 158 Кбит/сек
Видео
Идентификатор : 0
Формат : AVC
Формат/Информация : Advanced Video Codec
Профиль формата : [url=mailto:[email protected]][email protected][/url]
Параметр CABAC формата : Да
Параметр ReFrames формата : 4 кадры
Идентификатор кодека : H264
Продолжительность : 1 ч. 6 м.
Битрейт : 51,8 Кбит/сек
Ширина : 352 пикс.
Высота : 288 пикс.
Соотношение сторон : 1,222
Частота кадров : 25,000 кадр/сек
Стандарт вещания : PAL
Цветовое пространство : YUV
Подвыборка цветности : 4:2:0
Битовая глубина : 8 бит
Тип развёртки : Прогрессивная
Бит/(Пиксели*Кадры) : 0.020
Размер потока : 24,6 Мбайт (33%)
Библиотека кодирования : x264 core 112 r1867bm 22bfd31
Настройки программы : cabac=1 / ref=3 / deblock=1:0:0 / analyse=0x3:0x113 / me=hex / subme=7 / psy=1 / psy_rd=1.00:0.00 / mixed_ref=1 / me_range=16 / chroma_me=1 / trellis=1 / 8x8dct=1 / cqm=0 / deadzone=21,11 / fast_pskip=1 / chroma_qp_offset=-2 / threads=6 / sliced_threads=0 / nr=0 / decimate=1 / interlaced=0 / constrained_intra=0 / bframes=3 / b_pyramid=2 / b_adapt=1 / b_bias=0 / direct=1 / weightb=1 / open_gop=0 / weightp=2 / keyint=250 / keyint_min=25 / scenecut=40 / intra_refresh=0 / rc_lookahead=40 / rc=crf / mbtree=1 / crf=30.1 / qcomp=0.60 / qpmin=0 / qpmax=51 / qpstep=4 / ip_ratio=1.40 / aq=1:1.00
Аудио
Идентификатор : 1
Формат : MPEG Audio
Версия формата : Version 1
Профиль формата : Layer 3
Идентификатор кодека : 55
Идентификатор кодека/Подсказка : MP3
Продолжительность : 1 ч. 6 м.
Вид битрейта : Постоянный
Битрейт : 96,0 Кбит/сек
Канал(ы) : 2 канала(ов)
Частота : 44,1 КГц
Метод сжатия : С потерями
Размер потока : 45,6 Мбайт (61%)
Выравнивание : Разделение по промежуткам
Продолжительность промежутка : 40 мс. (1,00 видеокадр)
Время предзагрузки промежутка : 1891 ms
Общее
Формат : AVI
Формат/Информация : Audio Video Interleave
Размер файла : 89,1 Мбайт
Продолжительность : 1 ч. 15 м.
Общий поток : 164 Кбит/сек
Видео
Идентификатор : 0
Формат : AVC
Формат/Информация : Advanced Video Codec
Профиль формата : [url=mailto:[email protected]][email protected][/url]
Параметр CABAC формата : Да
Параметр ReFrames формата : 4 кадры
Идентификатор кодека : H264
Продолжительность : 1 ч. 15 м.
Битрейт : 58,1 Кбит/сек
Ширина : 352 пикс.
Высота : 288 пикс.
Соотношение сторон : 1,222
Частота кадров : 25,000 кадр/сек
Стандарт вещания : PAL
Цветовое пространство : YUV
Подвыборка цветности : 4:2:0
Битовая глубина : 8 бит
Тип развёртки : Прогрессивная
Бит/(Пиксели*Кадры) : 0.023
Размер потока : 31,6 Мбайт (35%)
Библиотека кодирования : x264 core 112 r1867bm 22bfd31
Настройки программы : cabac=1 / ref=3 / deblock=1:0:0 / analyse=0x3:0x113 / me=hex / subme=7 / psy=1 / psy_rd=1.00:0.00 / mixed_ref=1 / me_range=16 / chroma_me=1 / trellis=1 / 8x8dct=1 / cqm=0 / deadzone=21,11 / fast_pskip=1 / chroma_qp_offset=-2 / threads=6 / sliced_threads=0 / nr=0 / decimate=1 / interlaced=0 / constrained_intra=0 / bframes=3 / b_pyramid=2 / b_adapt=1 / b_bias=0 / direct=1 / weightb=1 / open_gop=0 / weightp=2 / keyint=250 / keyint_min=25 / scenecut=40 / intra_refresh=0 / rc_lookahead=40 / rc=crf / mbtree=1 / crf=30.1 / qcomp=0.60 / qpmin=0 / qpmax=51 / qpstep=4 / ip_ratio=1.40 / aq=1:1.00
Аудио
Идентификатор : 1
Формат : MPEG Audio
Версия формата : Version 1
Профиль формата : Layer 3
Идентификатор кодека : 55
Идентификатор кодека/Подсказка : MP3
Продолжительность : 1 ч. 15 м.
Вид битрейта : Постоянный
Битрейт : 96,0 Кбит/сек
Канал(ы) : 2 канала(ов)
Частота : 44,1 КГц
Метод сжатия : С потерями
Размер потока : 52,2 Мбайт (59%)
Выравнивание : Разделение по промежуткам
Продолжительность промежутка : 40 мс. (1,00 видеокадр)
Время предзагрузки промежутка : 1891 ms
Общее
Формат : AVI
Формат/Информация : Audio Video Interleave
Размер файла : 95,8 Мбайт
Продолжительность : 1 ч. 23 м.
Общий поток : 161 Кбит/сек
Видео
Идентификатор : 0
Формат : AVC
Формат/Информация : Advanced Video Codec
Профиль формата : [url=mailto:[email protected]][email protected][/url]
Параметр CABAC формата : Да
Параметр ReFrames формата : 4 кадры
Идентификатор кодека : H264
Продолжительность : 1 ч. 23 м.
Битрейт : 55,3 Кбит/сек
Ширина : 352 пикс.
Высота : 288 пикс.
Соотношение сторон : 1,222
Частота кадров : 25,000 кадр/сек
Стандарт вещания : PAL
Цветовое пространство : YUV
Подвыборка цветности : 4:2:0
Битовая глубина : 8 бит
Тип развёртки : Прогрессивная
Бит/(Пиксели*Кадры) : 0.022
Размер потока : 32,9 Мбайт (34%)
Библиотека кодирования : x264 core 112 r1867bm 22bfd31
Настройки программы : cabac=1 / ref=3 / deblock=1:0:0 / analyse=0x3:0x113 / me=hex / subme=7 / psy=1 / psy_rd=1.00:0.00 / mixed_ref=1 / me_range=16 / chroma_me=1 / trellis=1 / 8x8dct=1 / cqm=0 / deadzone=21,11 / fast_pskip=1 / chroma_qp_offset=-2 / threads=6 / sliced_threads=0 / nr=0 / decimate=1 / interlaced=0 / constrained_intra=0 / bframes=3 / b_pyramid=2 / b_adapt=1 / b_bias=0 / direct=1 / weightb=1 / open_gop=0 / weightp=2 / keyint=250 / keyint_min=25 / scenecut=40 / intra_refresh=0 / rc_lookahead=40 / rc=crf / mbtree=1 / crf=30.1 / qcomp=0.60 / qpmin=0 / qpmax=51 / qpstep=4 / ip_ratio=1.40 / aq=1:1.00
Аудио
Идентификатор : 1
Формат : MPEG Audio
Версия формата : Version 1
Профиль формата : Layer 3
Идентификатор кодека : 55
Идентификатор кодека/Подсказка : MP3
Продолжительность : 1 ч. 23 м.
Вид битрейта : Постоянный
Битрейт : 96,0 Кбит/сек
Канал(ы) : 2 канала(ов)
Частота : 44,1 КГц
Метод сжатия : С потерями
Размер потока : 57,1 Мбайт (60%)
Выравнивание : Разделение по промежуткам
Продолжительность промежутка : 40 мс. (1,00 видеокадр)
Время предзагрузки промежутка : 1891 ms
Общее
Формат : AVI
Формат/Информация : Audio Video Interleave
Размер файла : 101 Мбайт
Продолжительность : 1 ч. 20 м.
Общий поток : 175 Кбит/сек
Видео
Идентификатор : 0
Формат : AVC
Формат/Информация : Advanced Video Codec
Профиль формата : [url=mailto:[email protected]][email protected][/url]
Параметр CABAC формата : Да
Параметр ReFrames формата : 4 кадры
Идентификатор кодека : H264
Продолжительность : 1 ч. 20 м.
Битрейт : 69,4 Кбит/сек
Ширина : 352 пикс.
Высота : 288 пикс.
Соотношение сторон : 1,222
Частота кадров : 25,000 кадр/сек
Стандарт вещания : PAL
Цветовое пространство : YUV
Подвыборка цветности : 4:2:0
Битовая глубина : 8 бит
Тип развёртки : Прогрессивная
Бит/(Пиксели*Кадры) : 0.027
Размер потока : 40,2 Мбайт (40%)
Библиотека кодирования : x264 core 112 r1867bm 22bfd31
Настройки программы : cabac=1 / ref=3 / deblock=1:0:0 / analyse=0x3:0x113 / me=hex / subme=7 / psy=1 / psy_rd=1.00:0.00 / mixed_ref=1 / me_range=16 / chroma_me=1 / trellis=1 / 8x8dct=1 / cqm=0 / deadzone=21,11 / fast_pskip=1 / chroma_qp_offset=-2 / threads=6 / sliced_threads=0 / nr=0 / decimate=1 / interlaced=0 / constrained_intra=0 / bframes=3 / b_pyramid=2 / b_adapt=1 / b_bias=0 / direct=1 / weightb=1 / open_gop=0 / weightp=2 / keyint=250 / keyint_min=25 / scenecut=40 / intra_refresh=0 / rc_lookahead=40 / rc=crf / mbtree=1 / crf=30.1 / qcomp=0.60 / qpmin=0 / qpmax=51 / qpstep=4 / ip_ratio=1.40 / aq=1:1.00
Аудио
Идентификатор : 1
Формат : MPEG Audio
Версия формата : Version 1
Профиль формата : Layer 3
Идентификатор кодека : 55
Идентификатор кодека/Подсказка : MP3
Продолжительность : 1 ч. 20 м.
Вид битрейта : Постоянный
Битрейт : 96,0 Кбит/сек
Канал(ы) : 2 канала(ов)
Частота : 44,1 КГц
Метод сжатия : С потерями
Размер потока : 55,6 Мбайт (55%)
Выравнивание : Разделение по промежуткам
Продолжительность промежутка : 40 мс. (1,00 видеокадр)
Время предзагрузки промежутка : 1892 ms
Общее
Формат : AVI
Формат/Информация : Audio Video Interleave
Размер файла : 83,7 Мбайт
Продолжительность : 1 ч. 7 м.
Общий поток : 175 Кбит/сек
Видео
Идентификатор : 0
Формат : AVC
Формат/Информация : Advanced Video Codec
Профиль формата : [url=mailto:[email protected]][email protected][/url]
Параметр CABAC формата : Да
Параметр ReFrames формата : 4 кадры
Идентификатор кодека : H264
Продолжительность : 1 ч. 6 м.
Битрейт : 68,9 Кбит/сек
Ширина : 352 пикс.
Высота : 288 пикс.
Соотношение сторон : 1,222
Частота кадров : 25,000 кадр/сек
Стандарт вещания : PAL
Цветовое пространство : YUV
Подвыборка цветности : 4:2:0
Битовая глубина : 8 бит
Тип развёртки : Прогрессивная
Бит/(Пиксели*Кадры) : 0.027
Размер потока : 33,0 Мбайт (39%)
Библиотека кодирования : x264 core 112 r1867bm 22bfd31
Настройки программы : cabac=1 / ref=3 / deblock=1:0:0 / analyse=0x3:0x113 / me=hex / subme=7 / psy=1 / psy_rd=1.00:0.00 / mixed_ref=1 / me_range=16 / chroma_me=1 / trellis=1 / 8x8dct=1 / cqm=0 / deadzone=21,11 / fast_pskip=1 / chroma_qp_offset=-2 / threads=6 / sliced_threads=0 / nr=0 / decimate=1 / interlaced=0 / constrained_intra=0 / bframes=3 / b_pyramid=2 / b_adapt=1 / b_bias=0 / direct=1 / weightb=1 / open_gop=0 / weightp=2 / keyint=250 / keyint_min=25 / scenecut=40 / intra_refresh=0 / rc_lookahead=40 / rc=crf / mbtree=1 / crf=30.1 / qcomp=0.60 / qpmin=0 / qpmax=51 / qpstep=4 / ip_ratio=1.40 / aq=1:1.00
Аудио
Идентификатор : 1
Формат : MPEG Audio
Версия формата : Version 1
Профиль формата : Layer 3
Идентификатор кодека : 55
Идентификатор кодека/Подсказка : MP3
Продолжительность : 1 ч. 7 м.
Вид битрейта : Постоянный
Битрейт : 96,0 Кбит/сек
Канал(ы) : 2 канала(ов)
Частота : 44,1 КГц
Метод сжатия : С потерями
Размер потока : 46,0 Мбайт (55%)
Выравнивание : Разделение по промежуткам
Продолжительность промежутка : 40 мс. (1,00 видеокадр)
Время предзагрузки промежутка : 1891 ms
Общее
Формат : AVI
Формат/Информация : Audio Video Interleave
Размер файла : 61,3 Мбайт
Продолжительность : 52 м.
Общий поток : 164 Кбит/сек
Видео
Идентификатор : 0
Формат : AVC
Формат/Информация : Advanced Video Codec
Профиль формата : [url=mailto:[email protected]][email protected][/url]
Параметр CABAC формата : Да
Параметр ReFrames формата : 4 кадры
Идентификатор кодека : H264
Продолжительность : 52 м.
Битрейт : 58,5 Кбит/сек
Ширина : 352 пикс.
Высота : 288 пикс.
Соотношение сторон : 1,222
Частота кадров : 25,000 кадр/сек
Стандарт вещания : PAL
Цветовое пространство : YUV
Подвыборка цветности : 4:2:0
Битовая глубина : 8 бит
Тип развёртки : Прогрессивная
Бит/(Пиксели*Кадры) : 0.023
Размер потока : 21,8 Мбайт (36%)
Библиотека кодирования : x264 core 112 r1867bm 22bfd31
Настройки программы : cabac=1 / ref=3 / deblock=1:0:0 / analyse=0x3:0x113 / me=hex / subme=7 / psy=1 / psy_rd=1.00:0.00 / mixed_ref=1 / me_range=16 / chroma_me=1 / trellis=1 / 8x8dct=1 / cqm=0 / deadzone=21,11 / fast_pskip=1 / chroma_qp_offset=-2 / threads=6 / sliced_threads=0 / nr=0 / decimate=1 / interlaced=0 / constrained_intra=0 / bframes=3 / b_pyramid=2 / b_adapt=1 / b_bias=0 / direct=1 / weightb=1 / open_gop=0 / weightp=2 / keyint=250 / keyint_min=25 / scenecut=40 / intra_refresh=0 / rc_lookahead=40 / rc=crf / mbtree=1 / crf=30.1 / qcomp=0.60 / qpmin=0 / qpmax=51 / qpstep=4 / ip_ratio=1.40 / aq=1:1.00
Аудио
Идентификатор : 1
Формат : MPEG Audio
Версия формата : Version 1
Профиль формата : Layer 3
Идентификатор кодека : 55
Идентификатор кодека/Подсказка : MP3
Продолжительность : 52 м.
Вид битрейта : Постоянный
Битрейт : 96,0 Кбит/сек
Канал(ы) : 2 канала(ов)
Частота : 44,1 КГц
Метод сжатия : С потерями
Размер потока : 35,8 Мбайт (58%)
Выравнивание : Разделение по промежуткам
Продолжительность промежутка : 40 мс. (1,00 видеокадр)
Время предзагрузки промежутка : 1891 ms
Скриншоты:

Время раздачи: С 11:00 до 22:30
Other forum [Profile] [PM]
Display posts from previous:    
Reply to topic

The time now is: Today 09:57

All times are GMT + 3 Hours



You cannot post new topics in this forum
You cannot reply to topics in this forum
You cannot edit your posts in this forum
You cannot delete your posts in this forum
You cannot vote in polls in this forum
You cannot attach files in this forum
You cannot download files in this forum