Today is a free download without charge Download

Александр Хакимов | Лекции о взаимоотношениях и др. [2011-2012] DVDRip

Reply to topic
 
Author
Message

Omen ®

Longevity: 7 years 10 months

Posts: 181087

Торрент-статистика

Post 14-Jan-2013 21:02

[Quote]

-Александр Хакимов | Лекции о взаимоотношениях и др. [2011-2012] DVDRip- Год выпуска: 2011-2012
Жанр: Обучающее видео
Качество видео: DVDRip
Продолжительность: 14:27:35
Видео и Аудио кодеки: WMA
Битрейт видео: 25fps, 4000kbps
Размер кадра: 720x576
Битрейт аудио: 96-128kbps, 44-48kHz, 2Channels
Описание:
Александр Геннадьевич Хакимов – известный в России и других странах специалист по ведической культуре, писатель, психолог, художник, философ, проповедник.
Многие годы путешествия по всей России, а также ближнему и дальнему зарубежью, он занимается популяризацией ведического знания, которое, по сути, является источником мировой культуры.
Дело его жизни – нести людям знание, раскрывающее вечные законы бытия. Его лекциям присущи строгость и чистота, необычайно яркая образность и доходчивость. В них одна за другой разворачиваются тайны ведической мудрости, открывается трансцендентная высота философии.
Трудно найти точку на карте нашей страны, которую бы он не посетил. Практически каждый день его жизни – это лекции в переполненных залах, где он делится с людьми полученными знаниями. С большим вдохновением и энтузиазмом он читает лекции, проводит семинары с самой широкой аудиторией слушателей, принимает участие в беседах за круглым столом с учеными, философами, деятелями культуры, он частый гость различных теле- и радиопередач, которые пользуются неизменным успехом благодаря талантливому и доступному изложению сложных философских тем.
Природная мудрость в сочетании с любовью и вниманием к людям помогают каждому его слушателю глубже узнать себя, достигнуть понимания с другими, а также найти ответы на сокровенные вопросы о смысле человеческой жизни, об Абсолютной Истине и природе Любви, то есть получить практичные Знания, которые помогают человеку стать счастливым.
Александр Геннадьевич Хакимов говорит свежо и увлеченно, чаруя слушателей своим удивительным обаянием. И чем больше мы размышляем над его словами, тем больше начинаем осознавать их мудрость и глубину.
Автор книг: «Карма», «Реинкарнация», «Последний экзамен», «Духовная семейная жизнь», «Варнашрама-дхарма», «Уровни сознания» и других.

Темы:

Формула любви
Чакравидья
Семейные отношения
2012 год
Конфлитология
Последний экзамен, наука жить и умирать
Мальчик, юноша, мужчина, муж
Развод: «за» и «против» или куда уходит любовь

MediaInfo:

Общее
Полное имя : H:\My Videos\Lecture\Чайтанья Чандра Чаран Прабху\A.Hakimov\2011.04.18_Almaty,
Formula of love 2_Chaitanya Chandra Charan Prabhu.wmv
Формат : Windows Media
Размер файла : 1,32 Гбайт
Продолжительность : 1 ч. 57 м.
Режим общего битрейта : Переменный
Общий поток : 1607 Кбит/сек
Максимальный общий битрейт : 4668 Кбит/сек
Дата кодирования : UTC 2012-05-06 20:55:22.640
Видео
Идентификатор : 2
Формат : VC-1
Профиль формата : [email protected]
Идентификатор кодека : WMV3
Идентификатор кодека/Информация : Windows Media Video 9
Идентификатор кодека/Подсказка : WMV3
Описание кодека : Windows Media Video 9 - Professional
Продолжительность : 1 ч. 57 м.
Вид битрейта : Переменный
Битрейт : 1500 Кбит/сек
Ширина : 720 пикселей
Высота : 576 пикселей
Соотношение сторон : 5:4
Частота кадров : 25,000 кадров/сек
Стандарт вещания : PAL
Битовая глубина : 8 бит
Тип развёртки : Прогрессивная
Метод сжатия : С потерями
Бит/(Пиксели*Кадры) : 0.145
Размер потока : 1,23 Гбайт (93%)
NumberOfFrames : 175816
Аудио
Идентификатор : 1
Формат : WMA
Версия формата : Version 2
Идентификатор кодека : 161
Идентификатор кодека/Информация : Windows Media Audio
Описание кодека : Windows Media Audio 9.2 - 96 kbps, 44 kHz, stereo 2-pass VBR
Продолжительность : 1 ч. 57 м.
Вид битрейта : Переменный
Битрейт : 96,1 Кбит/сек
Каналы : 2 канала
Частота : 44,1 КГц
Битовая глубина : 16 бит
Размер потока : 80,5 Мбайт (6%)
NumberOfFrames : 18939
Общее
Полное имя : H:\My Videos\Lecture\Чайтанья Чандра Чаран Прабху\A.Hakimov\2011.12.07_Almaty,
Chakravidya_Chaitanya Chandra Charan Prabhu.wmv
Формат : Windows Media
Размер файла : 1,21 Гбайт
Продолжительность : 1 ч. 47 м.
Режим общего битрейта : Переменный
Общий поток : 1607 Кбит/сек
Максимальный общий битрейт : 4529 Кбит/сек
Дата кодирования : UTC 2011-12-10 19:31:13.541
Видео
Идентификатор : 2
Формат : VC-1
Профиль формата : [email protected]
Идентификатор кодека : WMV3
Идентификатор кодека/Информация : Windows Media Video 9
Идентификатор кодека/Подсказка : WMV3
Описание кодека : Windows Media Video 9 - Professional
Продолжительность : 1 ч. 47 м.
Вид битрейта : Переменный
Битрейт : 1500 Кбит/сек
Ширина : 720 пикселей
Высота : 576 пикселей
Соотношение сторон : 5:4
Частота кадров : 25,000 кадров/сек
Стандарт вещания : PAL
Битовая глубина : 8 бит
Тип развёртки : Прогрессивная
Метод сжатия : С потерями
Бит/(Пиксели*Кадры) : 0.145
Размер потока : 1,13 Гбайт (93%)
NumberOfFrames : 161730
Аудио
Идентификатор : 1
Формат : WMA
Версия формата : Version 2
Идентификатор кодека : 161
Идентификатор кодека/Информация : Windows Media Audio
Описание кодека : Windows Media Audio 9.2 - 96 kbps, 48 kHz, stereo 2-pass VBR
Продолжительность : 1 ч. 47 м.
Вид битрейта : Переменный
Битрейт : 95,5 Кбит/сек
Каналы : 2 канала
Частота : 48,0 КГц
Битовая глубина : 16 бит
Размер потока : 73,7 Мбайт (6%)
NumberOfFrames : 18863
Общее
Полное имя : H:\My Videos\Lecture\Чайтанья Чандра Чаран Прабху\A.Hakimov\2011.12.14_Almaty,
Family relations 1_Chaitanya Chandra Charan Prabhu.wmv
Формат : Windows Media
Размер файла : 1,20 Гбайт
Продолжительность : 1 ч. 46 м.
Режим общего битрейта : Переменный
Общий поток : 1607 Кбит/сек
Максимальный общий битрейт : 4012 Кбит/сек
Дата кодирования : UTC 2012-02-10 05:55:37.607
Видео
Идентификатор : 2
Формат : VC-1
Профиль формата : [email protected]
Идентификатор кодека : WMV3
Идентификатор кодека/Информация : Windows Media Video 9
Идентификатор кодека/Подсказка : WMV3
Описание кодека : Windows Media Video 9 - Professional
Продолжительность : 1 ч. 46 м.
Вид битрейта : Переменный
Битрейт : 1500 Кбит/сек
Ширина : 720 пикселей
Высота : 576 пикселей
Соотношение сторон : 5:4
Частота кадров : 25,000 кадров/сек
Стандарт вещания : PAL
Битовая глубина : 8 бит
Тип развёртки : Прогрессивная
Метод сжатия : С потерями
Бит/(Пиксели*Кадры) : 0.145
Размер потока : 1,12 Гбайт (93%)
NumberOfFrames : 160486
Аудио
Идентификатор : 1
Формат : WMA
Версия формата : Version 2
Идентификатор кодека : 161
Идентификатор кодека/Информация : Windows Media Audio
Описание кодека : Windows Media Audio 9.2 - 96 kbps, 44 kHz, stereo 2-pass VBR
Продолжительность : 1 ч. 46 м.
Вид битрейта : Переменный
Битрейт : 96,1 Кбит/сек
Каналы : 2 канала
Частота : 44,1 КГц
Битовая глубина : 16 бит
Размер потока : 73,6 Мбайт (6%)
NumberOfFrames : 17295
Общее
Полное имя : H:\My Videos\Lecture\Чайтанья Чандра Чаран Прабху\A.Hakimov\2011.12.22_Almaty,
Family relations 2_Chaitanya Chandra Charan Prabhu.wmv
Формат : Windows Media
Размер файла : 1,22 Гбайт
Продолжительность : 1 ч. 48 м.
Режим общего битрейта : Переменный
Общий поток : 1607 Кбит/сек
Максимальный общий битрейт : 4443 Кбит/сек
Дата кодирования : UTC 2011-12-25 11:04:14.295
Видео
Идентификатор : 2
Формат : VC-1
Профиль формата : [email protected]
Идентификатор кодека : WMV3
Идентификатор кодека/Информация : Windows Media Video 9
Идентификатор кодека/Подсказка : WMV3
Описание кодека : Windows Media Video 9 - Professional
Продолжительность : 1 ч. 48 м.
Вид битрейта : Переменный
Битрейт : 1500 Кбит/сек
Ширина : 720 пикселей
Высота : 576 пикселей
Соотношение сторон : 5:4
Частота кадров : 25,000 кадров/сек
Стандарт вещания : PAL
Битовая глубина : 8 бит
Тип развёртки : Прогрессивная
Метод сжатия : С потерями
Бит/(Пиксели*Кадры) : 0.145
Размер потока : 1,14 Гбайт (93%)
NumberOfFrames : 162552
Аудио
Идентификатор : 1
Формат : WMA
Версия формата : Version 2
Идентификатор кодека : 161
Идентификатор кодека/Информация : Windows Media Audio
Описание кодека : Windows Media Audio 9.2 - 96 kbps, 44 kHz, stereo 2-pass VBR
Продолжительность : 1 ч. 48 м.
Вид битрейта : Переменный
Битрейт : 96,1 Кбит/сек
Каналы : 2 канала
Частота : 44,1 КГц
Битовая глубина : 16 бит
Размер потока : 74,5 Мбайт (6%)
NumberOfFrames : 17515
Общее
Полное имя : H:\My Videos\Lecture\Чайтанья Чандра Чаран Прабху\A.Hakimov\2011.12.28_Almaty,
2012_Chaitanya Chandra Charan Prabhu.wmv
Формат : Windows Media
Размер файла : 738 Мбайт
Продолжительность : 1 ч. 4 м.
Режим общего битрейта : Переменный
Общий поток : 1607 Кбит/сек
Максимальный общий битрейт : 4475 Кбит/сек
Дата кодирования : UTC 2012-01-14 23:57:55.931
Видео
Идентификатор : 2
Формат : VC-1
Профиль формата : [email protected]
Идентификатор кодека : WMV3
Идентификатор кодека/Информация : Windows Media Video 9
Идентификатор кодека/Подсказка : WMV3
Описание кодека : Windows Media Video 9 - Professional
Продолжительность : 1 ч. 4 м.
Вид битрейта : Переменный
Битрейт : 1500 Кбит/сек
Ширина : 720 пикселей
Высота : 576 пикселей
Соотношение сторон : 5:4
Частота кадров : 25,000 кадров/сек
Стандарт вещания : PAL
Битовая глубина : 8 бит
Тип развёртки : Прогрессивная
Метод сжатия : С потерями
Бит/(Пиксели*Кадры) : 0.145
Размер потока : 689 Мбайт (93%)
NumberOfFrames : 96310
Аудио
Идентификатор : 1
Формат : WMA
Версия формата : Version 2
Идентификатор кодека : 161
Идентификатор кодека/Информация : Windows Media Audio
Описание кодека : Windows Media Audio 9.2 - 96 kbps, 44 kHz, stereo 2-pass VBR
Продолжительность : 1 ч. 4 м.
Вид битрейта : Переменный
Битрейт : 96,7 Кбит/сек
Каналы : 2 канала
Частота : 44,1 КГц
Битовая глубина : 16 бит
Размер потока : 44,4 Мбайт (6%)
NumberOfFrames : 10441
Общее
Полное имя : H:\My Videos\Lecture\Чайтанья Чандра Чаран Прабху\A.Hakimov\2012.01.04_Almaty,
Conflictology_Chaitanya Chandra Charan Prabhu.wmv
Формат : Windows Media
Размер файла : 1,26 Гбайт
Продолжительность : 1 ч. 52 м.
Режим общего битрейта : Переменный
Общий поток : 1607 Кбит/сек
Максимальный общий битрейт : 4462 Кбит/сек
Дата кодирования : UTC 2012-01-07 14:32:56.400
Видео
Идентификатор : 2
Формат : VC-1
Профиль формата : [email protected]
Идентификатор кодека : WMV3
Идентификатор кодека/Информация : Windows Media Video 9
Идентификатор кодека/Подсказка : WMV3
Описание кодека : Windows Media Video 9 - Professional
Продолжительность : 1 ч. 52 м.
Вид битрейта : Переменный
Битрейт : 1500 Кбит/сек
Ширина : 720 пикселей
Высота : 576 пикселей
Соотношение сторон : 5:4
Частота кадров : 25,000 кадров/сек
Стандарт вещания : PAL
Битовая глубина : 8 бит
Тип развёртки : Прогрессивная
Метод сжатия : С потерями
Бит/(Пиксели*Кадры) : 0.145
Размер потока : 1,17 Гбайт (93%)
NumberOfFrames : 168058
Аудио
Идентификатор : 1
Формат : WMA
Версия формата : Version 2
Идентификатор кодека : 161
Идентификатор кодека/Информация : Windows Media Audio
Описание кодека : Windows Media Audio 9.2 - 96 kbps, 44 kHz, stereo 2-pass VBR
Продолжительность : 1 ч. 52 м.
Вид битрейта : Переменный
Битрейт : 96,3 Кбит/сек
Каналы : 2 канала
Частота : 44,1 КГц
Битовая глубина : 16 бит
Размер потока : 77,2 Мбайт (6%)
NumberOfFrames : 18143
Общее
Полное имя : H:\My Videos\Lecture\Чайтанья Чандра Чаран Прабху\A.Hakimov
\2012.01.11_Almaty_Last examination, science to live and die_Chaitanya Chandra Charan Prabhu.wmv
Формат : Windows Media
Размер файла : 1,39 Гбайт
Продолжительность : 2 ч. 4 м.
Режим общего битрейта : Переменный
Общий поток : 1608 Кбит/сек
Максимальный общий битрейт : 4235 Кбит/сек
Дата кодирования : UTC 2012-02-08 18:48:01.813
Видео
Идентификатор : 2
Формат : VC-1
Профиль формата : [email protected]
Идентификатор кодека : WMV3
Идентификатор кодека/Информация : Windows Media Video 9
Идентификатор кодека/Подсказка : WMV3
Описание кодека : Windows Media Video 9 - Professional
Продолжительность : 2 ч. 4 м.
Вид битрейта : Переменный
Битрейт : 1500 Кбит/сек
Ширина : 720 пикселей
Высота : 576 пикселей
Соотношение сторон : 5:4
Частота кадров : 25,000 кадров/сек
Стандарт вещания : PAL
Битовая глубина : 8 бит
Тип развёртки : Прогрессивная
Метод сжатия : С потерями
Бит/(Пиксели*Кадры) : 0.145
Размер потока : 1,30 Гбайт (93%)
NumberOfFrames : 185992
Аудио
Идентификатор : 1
Формат : WMA
Версия формата : Version 2
Идентификатор кодека : 161
Идентификатор кодека/Информация : Windows Media Audio
Описание кодека : Windows Media Audio 9.2 - 96 kbps, 44 kHz, stereo 2-pass VBR
Продолжительность : 2 ч. 4 м.
Вид битрейта : Переменный
Битрейт : 96,9 Кбит/сек
Каналы : 2 канала
Частота : 44,1 КГц
Битовая глубина : 16 бит
Размер потока : 85,9 Мбайт (6%)
NumberOfFrames : 20205
Общее
Полное имя : H:\My Videos\Lecture\Чайтанья Чандра Чаран Прабху\A.Hakimov\2012.04.26_Almaty,
Boy Man Father_Chaitanya Chandra Charan Prabhu.wmv
Формат : Windows Media
Размер файла : 1,28 Гбайт
Продолжительность : 1 ч. 54 м.
Режим общего битрейта : Переменный
Общий поток : 1607 Кбит/сек
Максимальный общий битрейт : 4378 Кбит/сек
Дата кодирования : UTC 2012-05-07 12:23:59.265
Видео
Идентификатор : 2
Формат : VC-1
Профиль формата : [email protected]
Идентификатор кодека : WMV3
Идентификатор кодека/Информация : Windows Media Video 9
Идентификатор кодека/Подсказка : WMV3
Описание кодека : Windows Media Video 9 - Professional
Продолжительность : 1 ч. 54 м.
Вид битрейта : Переменный
Битрейт : 1500 Кбит/сек
Ширина : 720 пикселей
Высота : 576 пикселей
Соотношение сторон : 5:4
Частота кадров : 25,000 кадров/сек
Стандарт вещания : PAL
Битовая глубина : 8 бит
Тип развёртки : Прогрессивная
Метод сжатия : С потерями
Бит/(Пиксели*Кадры) : 0.145
Размер потока : 1,20 Гбайт (93%)
NumberOfFrames : 171531
Аудио
Идентификатор : 1
Формат : WMA
Версия формата : Version 2
Идентификатор кодека : 161
Идентификатор кодека/Информация : Windows Media Audio
Описание кодека : Windows Media Audio 9.2 - 96 kbps, 44 kHz, stereo 2-pass VBR
Продолжительность : 1 ч. 54 м.
Вид битрейта : Переменный
Битрейт : 96,1 Кбит/сек
Каналы : 2 канала
Частота : 44,1 КГц
Битовая глубина : 16 бит
Размер потока : 78,6 Мбайт (6%)
NumberOfFrames : 18480
Общее
Полное имя : H:\My Videos\Lecture\Чайтанья Чандра Чаран Прабху\A.Hakimov\2012.05.12_Almaty,
Divorce pros and cons or where the love leaves_Chaitanya Chandra Charan Prabhu.wmv
Формат : Windows Media
Размер файла : 1,46 Гбайт
Продолжительность : 2 ч. 9 м.
Режим общего битрейта : Переменный
Общий поток : 1607 Кбит/сек
Максимальный общий битрейт : 3728 Кбит/сек
Дата кодирования : UTC 2012-05-12 08:13:36.577
Видео
Идентификатор : 2
Формат : VC-1
Профиль формата : [email protected]
Идентификатор кодека : WMV3
Идентификатор кодека/Информация : Windows Media Video 9
Идентификатор кодека/Подсказка : WMV3
Описание кодека : Windows Media Video 9 - Professional
Продолжительность : 2 ч. 9 м.
Вид битрейта : Переменный
Битрейт : 1500 Кбит/сек
Ширина : 720 пикселей
Высота : 576 пикселей
Соотношение сторон : 5:4
Частота кадров : 25,000 кадров/сек
Стандарт вещания : PAL
Битовая глубина : 8 бит
Тип развёртки : Прогрессивная
Метод сжатия : С потерями
Бит/(Пиксели*Кадры) : 0.145
Размер потока : 1,36 Гбайт (93%)
NumberOfFrames : 194755
Аудио
Идентификатор : 1
Формат : WMA
Версия формата : Version 2
Идентификатор кодека : 161
Идентификатор кодека/Информация : Windows Media Audio
Описание кодека : Windows Media Audio 9.2 - 96 kbps, 48 kHz, stereo 2-pass VBR
Продолжительность : 2 ч. 9 м.
Вид битрейта : Переменный
Битрейт : 96,0 Кбит/сек
Каналы : 2 канала
Частота : 48,0 КГц
Битовая глубина : 16 бит
Размер потока : 89,2 Мбайт (6%)
NumberOfFrames : 22823
Скриншоты:

Время раздачи: 24/7
Other forum [Profile] [PM]
Similar theme
Forum Topic Author Torrent Replies Last Post
./templates/default/images/folder_dl.gif Мультимедийные приложения Алексей Жуматаев | Бухгалтерия для не бухгалтера (2014) [unpacked] Omen
1 | 0

0 | 27

5

2014-11-24 18:48
Omen Latest
./templates/default/images/folder_dl.gif Отечественные cериалы Охотники за бриллиантами / Сезон: 1 / Серии: 1-8 из 8 (Александр Котт) [2011, детектив, WEB-DL 1080p] Omen
1 | 0

0 | 903

3

2014-12-20 20:00
Omen Latest
./templates/default/images/folder_dl.gif Обучающее видео Александр Медведев | Дистанционный курс по фотографии (2014) PCRec Omen
1 | 0

0 | 2334

49

2014-12-25 20:39
Omen Latest
./templates/default/images/folder_dl.gif Компьютерная литература Александр Шевчук и др. | Design Patterns via C#. Приемы объектно-ориентированного проектирования (2015) [PDF] Omen
1 | 0

0 | 2355

26

2015-03-06 21:59
Omen Latest
./templates/default/images/folder_dl.gif Отечественные cериалы Меч 2 (Пролог + Серии 01—20 из 20) (Алексей Луканев) [2015, криминал, SATRip] DED
1 | 0

0 | 1866

39

2015-06-15 18:54
DED Latest
./templates/default/images/folder_dl.gif Компьютерная литература Алексей Гультяев | Самоучитель Nero 8. Запись CD и DVD (2008) [PDF] Omen
1 | 0

0 | 1625

4

2015-07-12 16:15
Omen Latest
./templates/default/images/folder_dl.gif Медицина и Здоровье Александр Шишкин | Массаж за 20 минут. Экспресс-курс для начинающих (2015) [FB2] Omen
1 | 0

0 | 1157

13

2015-09-01 18:52
Omen Latest
./templates/default/images/folder_dl.gif Компьютерная литература Алексей Гладкий | Компьютер для бухгалтера (2015) [FB2] Anonymous
1 | 0

0 | 624

6

2016-07-14 09:34
Anonymous Latest
./templates/default/images/folder_dl.gif Обучающее видео Алексей Кузьмичев | Магия цвета. Курс по цветокоррекции в Adobe Photoshop (2016) PCRec [H.264] Omen
1 | 0

0 | 2225

44

2016-10-27 01:00
Omen Latest
./templates/default/images/folder_dl.gif Медицина и Здоровье Антон Алексеев | Благодарный позвоночник. Как навсегда избавить его от боли (2017) [PDF, EPUB] }{@R0N
1 | 0

0 | 5459

3

2017-10-22 20:39
}{@R0N Latest
Display posts from previous:    
Reply to topic

The time now is: Today 22:09

All times are GMT + 3 Hours



You cannot post new topics in this forum
You cannot reply to topics in this forum
You cannot edit your posts in this forum
You cannot delete your posts in this forum
You cannot vote in polls in this forum
You cannot attach files in this forum
You cannot download files in this forum