Today is a free download without charge Download

Вячеслав Дубынин | Мозг и наркотики: опиоиды, психостимуляторы, галлюцинагены [2012] WEBRip

Reply to topic
 
Author
Message

Omen ®

Longevity: 7 years 10 months

Posts: 181087

Торрент-статистика

Post 14-Jan-2013 21:02

[Quote]

- Вячеслав Дубынин| Мозг и наркотики: опиоиды, психостимуляторы, галлюцинагены [2012] WEBRip- Автор (режиссер): Вячеслав Дубынин
Название: Мозг и наркотики: опиоиды, психостимуляторы, галлюцинагены
Год выпуска: 2012
Жанр: Лекция
Качество видео: WEBRip
Продолжительность: 00:54:13 , 01:03:26 , 01:10:54
Формат: AVI
Видео: 640x480 (1.33:1), 25 fps, H.264 ~617 kbps
Аудио: 44.100 kHz, MPEG, 2 ch,~128.00 kbps
Описание:
Психоактивные вещества известны человечеству очень давно. Это прежде всего алкоголь и растительные продукты, употребление которых прямо воздействует на головной мозг. Пиво, опийный мак, конопля, листья коки используются не менее чем, чем с 7-8 до н.э., а может быть и более.
Почему опиоиды (морфин, героин, метадон) способны подчинить себе человека? Почему они столь мощно влияют на болевую чувствительность и эмоции? Для чего наш мозг вырабатывает сходные вещества самостоятельно, и какую роль они играют в различных проявлениях психической деятельности? Что происходит с нервной системой при формировании наркотической опиоидной зависимости?
Целый ряд веществ - от кофеина до эфедрина, амфетаминов, кокаина - можно отнести к категории психомоторных стимуляторов. Почему они способны снимать усталость и активизировать деятельность мозга? Почему большинство из них ускоряет мышление и вызывает положительные эмоции? Происходит ли при этом повреждение нервных структур и формирование наркотической зависимости? Почему многие психотропные препараты способны вызывать галлюцинации? На какие нервные центры воздействуют ЛСД, кетамин, атропин, каннабиноиды? Каковы последствия фармакологического «расширения сознания»? Действительно ли экстази может иметь медицинское применение?

MI

General
Complete name : D:\Кино\Mozg_i_narkotiki\Мозг и наркотики. Галлюциногены.avi
Format : AVI
Format/Info : Audio Video Interleave
File size : 384 MiB
Duration : 1h 10mn
Overall bit rate mode : Variable
Overall bit rate : 758 Kbps
Writing application : Lavf51.12.1
Video
ID : 0
Format : AVC
Format/Info : Advanced Video Codec
Format profile : [url=mailto:[email protected]][email protected][/url]
Format settings, CABAC : No
Format settings, ReFrames : 1 frame
Format settings, GOP : M=1, N=12
Codec ID : H264
Duration : 1h 10mn
Bit rate mode : Variable
Bit rate : 618 Kbps
Maximum bit rate : 886 Kbps
Width : 640 pixels
Height : 480 pixels
Display aspect ratio : 4:3
Frame rate : 25.000 fps
Original frame rate : 24.000 fps
Color space : YUV
Chroma subsampling : 4:2:0
Bit depth : 8 bits
Scan type : Progressive
Bits/(Pixel*Frame) : 0.080
Stream size : 313 MiB (81%)
Audio
ID : 1
Format : MPEG Audio
Format version : Version 1
Format profile : Layer 3
Mode : Joint stereo
Mode extension : MS Stereo
Codec ID : 55
Codec ID/Hint : MP3
Duration : 1h 10mn
Bit rate mode : Constant
Bit rate : 128 Kbps
Channel(s) : 2 channels
Sampling rate : 44.1 KHz
Compression mode : Lossy
Stream size : 64.9 MiB (17%)
Alignment : Aligned on interleaves
Interleave, duration : 26 ms (0.65 video frame)
Interleave, preload duration : 26 ms
Writing library : LAME3.97
           
Other forum [Profile] [PM]
Display posts from previous:    
Reply to topic

The time now is: Today 19:52

All times are GMT + 3 Hours



You cannot post new topics in this forum
You cannot reply to topics in this forum
You cannot edit your posts in this forum
You cannot delete your posts in this forum
You cannot vote in polls in this forum
You cannot attach files in this forum
You cannot download files in this forum