Today is a free download without charge Download

О.Г.Торсунов | Счастливая семейная жизнь [2012] DVDRip

Reply to topic
 
Author
Message

Omen ®

Longevity: 7 years 10 months

Posts: 181087

Торрент-статистика

Post 14-Jan-2013 21:02

[Quote]

-О.Г.Торсунов | Счастливая семейная жизнь [2012] DVDRip- Автор: О.Г.Торсунов
Название: Счастливая семейная жизнь
Жанр: Обучающее видео, психология
Качество видео: DVDRip
Продолжительность: 10:47:49
Видеокодек: WMV 2 и MPEG-4 AVC/H.264
Битрейт видео: wmv: 25fps, 1500kbps / avi: 10fps, 200kbps
Размер кадра: 720x576 / 1024х576
Аудиокодек: WMA / MP3
Битрейт аудио: 96kbps, 48kHz , 2Channels / 48kbps, 32kHz, mono
Описание:
В своих лекциях Торсунов О. Г. пропагандирует здоровый образ жизни. В частности, уделяет большое внимание значению режима дня и правильному питанию (правильный подбор, совместимость и приготовление продуктов питания). Его беседы выходят далеко за рамки чисто медицинской тематики, в них детально разбираются вопросы взаимоотношения людей и их влияния на здоровье, психологии семейных отношений, правильного воспитания детей, ведической культуры и медицины, астрологии и влияния планет на характер и здоровье людей, строения тонкого тела человека, рассматриваются также такие вопросы, как карма и реинкарнация. После каждой лекции Торсунов О. Г. отвечает на многочисленные вопросы и проводит бесплатную диагностику слушателей.
Уровень мастерства Торсунова О.Г. поражает: например, по телефонному звонку он может, просто слушая голос позвонившего, определить целый ряд заболеваний, которыми тот страдает, указать причины их развития, и дать практические советы по улучшению здоровья. www.torsunov.ru

Дополнительная информация:

В раздаче две папки: в wmv - более качественное видео, в avi - те же лекции, но c меньшим качеством/размером.
Во второй и третей лекции - первые минут 40 (во время сессии вопросов/ответов) - звук без видео.

MediaInfo:

Общее
Полное имя : H:\My Videos\Lecture\Торсунов\Torsunov\avi\2012.08.16_Almaty, Happy family life 1_Audarya Dhama d..avi
Формат : AVI
Формат/Информация : Audio Video Interleave
Размер файла : 323 Мбайт
Продолжительность : 3 ч. 0 м.
Общий поток : 250 Кбит/сек
Видео
Идентификатор : 0
Формат : AVC
Формат/Информация : Advanced Video Codec
Профиль формата : [url=mailto:[email protected]][email protected][/url]
Параметр CABAC формата : Да
Параметр ReFrames формата : 1 кадр
Идентификатор кодека : H264
Продолжительность : 3 ч. 0 м.
Битрейт : 198 Кбит/сек
Ширина : 1024 пикселя
Высота : 576 пикселей
Соотношение сторон : 16:9
Частота кадров : 10,000 кадров/сек
Цветовое пространство : YUV
Субдискретизация насыщенности : 4:2:0
Битовая глубина : 8 бит
Тип развёртки : Прогрессивная
Бит/(Пиксели*Кадры) : 0.034
Размер потока : 256 Мбайт (79%)
Аудио
Идентификатор : 1
Формат : MPEG Audio
Версия формата : Version 1
Профиль формата : Layer 3
Идентификатор кодека : 55
Идентификатор кодека/Подсказка : MP3
Продолжительность : 3 ч. 0 м.
Вид битрейта : Постоянный
Битрейт : 48,0 Кбит/сек
Каналы : 1 канал
Частота : 32,0 КГц
Метод сжатия : С потерями
Размер потока : 61,9 Мбайт (19%)
Выравнивание : Разделение по промежуткам
Продолжительность промежутка : 102 мс. (1,02 видеокадр)
Время предзагрузки промежутка : 133 мс.
Общее
Полное имя : H:\My Videos\Lecture\Торсунов\Torsunov\avi\2012.08.17_Almaty, Happy family life 2_Audarya Dhama d..avi
Формат : AVI
Формат/Информация : Audio Video Interleave
Размер файла : 426 Мбайт
Продолжительность : 3 ч. 57 м.
Общий поток : 251 Кбит/сек
Видео
Идентификатор : 0
Формат : AVC
Формат/Информация : Advanced Video Codec
Профиль формата : [url=mailto:[email protected]][email protected][/url]
Параметр CABAC формата : Да
Параметр ReFrames формата : 1 кадр
Идентификатор кодека : H264
Продолжительность : 3 ч. 57 м.
Битрейт : 199 Кбит/сек
Ширина : 1024 пикселя
Высота : 576 пикселей
Соотношение сторон : 16:9
Частота кадров : 10,000 кадров/сек
Цветовое пространство : YUV
Субдискретизация насыщенности : 4:2:0
Битовая глубина : 8 бит
Тип развёртки : Прогрессивная
Бит/(Пиксели*Кадры) : 0.034
Размер потока : 338 Мбайт (79%)
Аудио
Идентификатор : 1
Формат : MPEG Audio
Версия формата : Version 1
Профиль формата : Layer 3
Идентификатор кодека : 55
Идентификатор кодека/Подсказка : MP3
Продолжительность : 3 ч. 57 м.
Вид битрейта : Постоянный
Битрейт : 48,0 Кбит/сек
Каналы : 1 канал
Частота : 32,0 КГц
Метод сжатия : С потерями
Размер потока : 81,4 Мбайт (19%)
Выравнивание : Разделение по промежуткам
Продолжительность промежутка : 102 мс. (1,02 видеокадр)
Время предзагрузки промежутка : 141 мс.
Общее
Полное имя : H:\My Videos\Lecture\Торсунов\Torsunov\avi\2012.08.18_Almaty, Happy family life 3_Audarya Dhama d..avi
Формат : AVI
Формат/Информация : Audio Video Interleave
Размер файла : 415 Мбайт
Продолжительность : 3 ч. 50 м.
Общий поток : 252 Кбит/сек
Видео
Идентификатор : 0
Формат : AVC
Формат/Информация : Advanced Video Codec
Профиль формата : [url=mailto:[email protected]][email protected][/url]
Параметр CABAC формата : Да
Параметр ReFrames формата : 1 кадр
Идентификатор кодека : H264
Продолжительность : 3 ч. 50 м.
Битрейт : 200 Кбит/сек
Ширина : 1024 пикселя
Высота : 576 пикселей
Соотношение сторон : 16:9
Частота кадров : 10,000 кадров/сек
Цветовое пространство : YUV
Субдискретизация насыщенности : 4:2:0
Битовая глубина : 8 бит
Тип развёртки : Прогрессивная
Бит/(Пиксели*Кадры) : 0.034
Размер потока : 330 Мбайт (79%)
Аудио
Идентификатор : 1
Формат : MPEG Audio
Версия формата : Version 1
Профиль формата : Layer 3
Идентификатор кодека : 55
Идентификатор кодека/Подсказка : MP3
Продолжительность : 3 ч. 50 м.
Вид битрейта : Постоянный
Битрейт : 48,0 Кбит/сек
Каналы : 1 канал
Частота : 32,0 КГц
Метод сжатия : С потерями
Размер потока : 79,1 Мбайт (19%)
Выравнивание : Разделение по промежуткам
Продолжительность промежутка : 113 мс. (1,13 видеокадр)
Время предзагрузки промежутка : 141 мс.
Общее
Полное имя : H:\My Videos\Lecture\Торсунов\Torsunov\wmv\2012.08.16_Almaty, Happy family life 1_Audarya Dhama d..wmv
Формат : Windows Media
Размер файла : 2,03 Гбайт
Продолжительность : 3 ч. 0 м.
Режим общего битрейта : Переменный
Общий поток : 1607 Кбит/сек
Максимальный общий битрейт : 4495 Кбит/сек
Дата кодирования : UTC 2012-09-05 02:13:36.785
Видео
Идентификатор : 2
Формат : VC-1
Профиль формата : [email protected]
Идентификатор кодека : WMV3
Идентификатор кодека/Информация : Windows Media Video 9
Идентификатор кодека/Подсказка : WMV3
Описание кодека : Windows Media Video 9 - Professional
Продолжительность : 3 ч. 0 м.
Вид битрейта : Переменный
Битрейт : 1500 Кбит/сек
Ширина : 720 пикселей
Высота : 576 пикселей
Соотношение сторон : 5:4
Частота кадров : 25,000 кадров/сек
Стандарт вещания : PAL
Битовая глубина : 8 бит
Тип развёртки : Прогрессивная
Метод сжатия : С потерями
Бит/(Пиксели*Кадры) : 0.145
Размер потока : 1,89 Гбайт (93%)
NumberOfFrames : 270526
Аудио
Идентификатор : 1
Формат : WMA
Версия формата : Version 2
Идентификатор кодека : 161
Идентификатор кодека/Информация : Windows Media Audio
Описание кодека : Windows Media Audio 9.2 - 96 kbps, 48 kHz, stereo 2-pass VBR
Продолжительность : 3 ч. 0 м.
Вид битрейта : Переменный
Битрейт : 96,1 Кбит/сек
Каналы : 2 канала
Частота : 48,0 КГц
Битовая глубина : 16 бит
Размер потока : 124 Мбайт (6%)
NumberOfFrames : 31751
Общее
Полное имя : H:\My Videos\Lecture\Торсунов\Torsunov\wmv\2012.08.17_Almaty, Happy family life 2_Audarya Dhama d..wmv
Формат : Windows Media
Размер файла : 2,66 Гбайт
Продолжительность : 3 ч. 57 м.
Режим общего битрейта : Переменный
Общий поток : 1607 Кбит/сек
Максимальный общий битрейт : 4491 Кбит/сек
Дата кодирования : UTC 2012-09-06 04:43:32.364
Видео
Идентификатор : 2
Формат : VC-1
Профиль формата : [email protected]
Идентификатор кодека : WMV3
Идентификатор кодека/Информация : Windows Media Video 9
Идентификатор кодека/Подсказка : WMV3
Описание кодека : Windows Media Video 9 - Professional
Продолжительность : 3 ч. 57 м.
Вид битрейта : Переменный
Битрейт : 1500 Кбит/сек
Ширина : 720 пикселей
Высота : 576 пикселей
Соотношение сторон : 5:4
Частота кадров : 25,000 кадров/сек
Стандарт вещания : PAL
Битовая глубина : 8 бит
Тип развёртки : Прогрессивная
Метод сжатия : С потерями
Бит/(Пиксели*Кадры) : 0.145
Размер потока : 2,48 Гбайт (93%)
NumberOfFrames : 355747
Аудио
Идентификатор : 1
Формат : WMA
Версия формата : Version 2
Идентификатор кодека : 161
Идентификатор кодека/Информация : Windows Media Audio
Описание кодека : Windows Media Audio 9.2 - 96 kbps, 48 kHz, stereo 2-pass VBR
Продолжительность : 3 ч. 57 м.
Вид битрейта : Переменный
Битрейт : 96,1 Кбит/сек
Каналы : 2 канала
Частота : 48,0 КГц
Битовая глубина : 16 бит
Размер потока : 163 Мбайт (6%)
NumberOfFrames : 41737
Общее
Полное имя : H:\My Videos\Lecture\Торсунов\Torsunov\wmv\2012.08.18_Almaty, Happy family life 3_Audarya Dhama d..wmv
Формат : Windows Media
Размер файла : 2,59 Гбайт
Продолжительность : 3 ч. 50 м.
Режим общего битрейта : Переменный
Общий поток : 1609 Кбит/сек
Максимальный общий битрейт : 4579 Кбит/сек
Дата кодирования : UTC 2012-09-06 13:12:33.278
Видео
Идентификатор : 2
Формат : VC-1
Профиль формата : [email protected]
Идентификатор кодека : WMV3
Идентификатор кодека/Информация : Windows Media Video 9
Идентификатор кодека/Подсказка : WMV3
Описание кодека : Windows Media Video 9 - Professional
Продолжительность : 3 ч. 50 м.
Вид битрейта : Переменный
Битрейт : 1500 Кбит/сек
Ширина : 720 пикселей
Высота : 576 пикселей
Соотношение сторон : 5:4
Частота кадров : 25,000 кадров/сек
Стандарт вещания : PAL
Битовая глубина : 8 бит
Тип развёртки : Прогрессивная
Метод сжатия : С потерями
Бит/(Пиксели*Кадры) : 0.145
Размер потока : 2,41 Гбайт (93%)
NumberOfFrames : 345483
Аудио
Идентификатор : 1
Формат : WMA
Версия формата : Version 2
Идентификатор кодека : 161
Идентификатор кодека/Информация : Windows Media Audio
Описание кодека : Windows Media Audio 9.2 - 96 kbps, 48 kHz, stereo 2-pass VBR
Продолжительность : 3 ч. 50 м.
Вид битрейта : Переменный
Битрейт : 96,2 Кбит/сек
Каналы : 2 канала
Частота : 48,0 КГц
Битовая глубина : 16 бит
Размер потока : 159 Мбайт (6%)
NumberOfFrames : 40575
Скриншоты:

Время раздачи: 24x7
Other forum [Profile] [PM]
Display posts from previous:    
Reply to topic

The time now is: Today 15:53

All times are GMT + 3 Hours



You cannot post new topics in this forum
You cannot reply to topics in this forum
You cannot edit your posts in this forum
You cannot delete your posts in this forum
You cannot vote in polls in this forum
You cannot attach files in this forum
You cannot download files in this forum