Today is a free download without charge Download

Владимир Баев | Фэншуй Магия пространства [2000] DVDRip

Reply to topic
 
Author
Message

Omen ®

Longevity: 7 years 10 months

Posts: 181087

Торрент-статистика

Post 14-Jan-2013 21:02

[Quote]

-Владимир Баев | Фэншуй Магия пространства [2000] DVDRip- Автор (режиссер): Владимир Баев
Название: Фэншуй Магия пространства
Год выпуска: 2000
Жанр: Обучающее видео
Качество видео: DVDRip
Продолжительность: 0:31:57
Видеокодек: MPEG 2
Битрейт видео: ~1323 Кбит/сек
Размер кадра: 352*576
Аудиокодек: AC3 2.0
Битрейт аудио: 192 Кбит/сек, 48,0 КГц
Описание:
Эта программа познакомит вас с древнекитайским искусством фэншуй. Фэншуй – это система знаний об устройстве мира, о законах пространства и взаимодействия человека с окружающей средой.
Вы узнаете правила применения фэншуй в повседневной жизни, сможете гармонично обустроить свой дом, сделать внутреннее убранство дома таким, чтобы он стал источником силы и успеха в вашей жизни, благополучия и тепла любви. Прикоснувшись к древнему знанию, вы поймете, что неодушевленный мир влияет на нас так же сильно, как мир живой…

MediaInfo:

Общее
Полное имя : C:\Documents and Settings\Admin\Мои документы\Downloads\Fan_shuy_magiya_prostranstva\magiya prostranstva.VOB
Формат : MPEG-PS
Размер файла : 353 Мбайт
Продолжительность : 31 м.
Режим общего битрейта : Переменный
Общий поток : 1546 Кбит/сек
Видео
Идентификатор : 224 (0xE0)
Формат : MPEG Video
Версия формата : Version 2
Профиль формата : [email protected]
Параметр BVOP формата : Да
Параметр матрицы формата : Выборочная
Продолжительность : 31 м.
Вид битрейта : Переменный
Битрейт : 1323 Кбит/сек
Максимальный битрейт : 2500 Кбит/сек
Ширина : 352 пикселя
Высота : 576 пикселей
Соотношение сторон : 4:3
Частота кадров : 25,000 кадров/сек
Стандарт вещания : PAL
Цветовое пространство : YUV
Субдискретизация насыщенности : 4:2:0
Битовая глубина : 8 бит
Тип развёртки : Чересстрочная
Порядок развёртки : Верхнее поле первое
Метод сжатия : С потерями
Бит/(Пиксели*Кадры) : 0.261
Размер потока : 302 Мбайт (86%)
Аудио
Идентификатор : 189 (0xBD)-128 (0x80)
Формат : AC-3
Формат/Информация : Audio Coding 3
Расширение режима : CM (complete main)
Режим смешивания : DVD-Video
Продолжительность : 31 м.
Вид битрейта : Постоянный
Битрейт : 192 Кбит/сек
Каналы : 2 канала
Расположение каналов : Front: L R
Частота : 48,0 КГц
Битовая глубина : 16 бит
Метод сжатия : С потерями
Размер потока : 43,7 Мбайт (12%)
Скриншоты:

Время раздачи: По мере возможности
Other forum [Profile] [PM]
Similar theme
Forum Topic Author Torrent Replies Last Post
./templates/default/images/folder_dl.gif Фильмы до 2000 года Фанат 2 ( Владимир Феоктистов)[1990.,Боевик] DVDRip sashau
1 | 0

0 | 3309

1

2014-02-10 12:54
sashau Latest
./templates/default/images/folder_dl.gif Отечественные cериалы Операция «Горгона» / Серии: 1-4 из 4 (Владимир Котт) [2011, боевик, драма, военный, WEBRip (1080p)] Omen
1 | 0

0 | 2482

13

2016-08-18 01:00
Omen Latest
./templates/default/images/folder_dl.gif Обучающая и научно-популярная литература Леви Владимир - Научно-популярная и Учебная литература. 8, Лекарство от лени [Валентина Краснянская, (ЛИ), 2005, 128 kbps, MP3] Omen
1 | 0

0 | 2499

12

2017-01-09 01:01
Omen Latest
./templates/default/images/folder_dl.gif Фантастика, фэнтези, ужасы, мистика Владимир Поселягин | Назад в будущее (2019) [MP3] }{@R0N
1 | 0

0 | 917

2

2019-06-11 23:04
}{@R0N Latest
Display posts from previous:    
Reply to topic

The time now is: Today 18:30

All times are GMT + 3 Hours



You cannot post new topics in this forum
You cannot reply to topics in this forum
You cannot edit your posts in this forum
You cannot delete your posts in this forum
You cannot vote in polls in this forum
You cannot attach files in this forum
You cannot download files in this forum