Today is a free download without charge Download

Райан Черч | Введение в Corel Painter [2009] DVDRip [Eng]

Reply to topic
 
Author
Message

Omen ®

Longevity: 7 years 10 months

Posts: 181087

Торрент-статистика

Post 14-Jan-2013 21:02

[Quote]

-Райан Черч | Введение в Corel Painter [2009] DVDRip [Eng]- Автор (режиссер): Райан Черч/Ryan Church
Название: Введение в Corel Painter
Оригинальное название: Introduction to Corel Painter
Год выпуска: 2009
Жанр: Дизайн
Язык: Английский
Качество видео: DVDRip
Продолжительность: 02:52:15
Видеокодек: XviD
Битрейт видео: ~1013 Кбит/сек
Размер кадра: 640 х 480 — 1024 x 768
Аудиокодек: MP3
Битрейт аудио: 128 Кбит/сек., 44,1 КГц
Описание:
Автор данного мастер-класса, Райан Черч, - известный американский художник-концептуалист. Его работы - это графика к таким фильмам, как "Звездные войны", "Месть ситхов", "Атака клонов", "Трансформеры 2" и "Avatar" Джеймса Камерона. Будучи поклонником программы Corel Painter, Райан, на примере своих работ, помогает зрителям освоить данный программный пакет.
На первых уроках, автор раскрывает о настройках рабочего пространства, меню программы, свойствах кистей. Затем, в реальном времени, художник выстраивает фантастические пейзажи и сцены, начиная с обычных эскизов и заканчивая прорисовкой деталей. Язык английский, но это вобщем даже и не суть важно для тех кто его не понимает, просто смотрите внимательно за последовательностью действий автора и проблем не возникнет.
Курс будет интересен в первую очередь дизайнерам, а так же поклонникам жанра фэнтези.
Для удобства каждый новый урок - отдельный видео файл

отчет МедиаИнфо

Общее
Полное имя : D:\nnm\razdacha\Introduction to Corel Painter\Introduction to Corel Painter\01 intro.avi
Формат : AVI
Формат/Информация : Audio Video Interleave
Размер файла : 3,63 Мбайт
Продолжительность : 26 с.
Общий поток : 1152 Кбит/сек
Программа кодирования : MEncoder SVN-r29352(20090610-gcc4.3.3)
Библиотека кодирования : MPlayer
Видео
Идентификатор : 0
Формат : MPEG-4 Visual
Профиль формата : Advanced [email protected]
Параметр BVOP формата : 2
Параметр QPel формата : Нет
Параметр GMC формата : Без точки перехода
Параметр матрицы формата : Default (H.263)
Идентификатор кодека : XVID
Идентификатор кодека/Подсказка : XviD
Продолжительность : 26 с.
Битрейт : 1013 Кбит/сек
Ширина : 640 пикселей
Высота : 480 пикселей
Соотношение сторон : 4:3
Частота кадров : 15,000 кадров/сек
Цветовое пространство : YUV
Субдискретизация насыщенности : 4:2:0
Битовая глубина : 8 бит
Тип развёртки : Прогрессивная
Метод сжатия : С потерями
Бит/(Пиксели*Кадры) : 0.220
Размер потока : 3,19 Мбайт (88%)
Библиотека кодирования : XviD 1.2.1 (UTC 2008-12-04)
Аудио
Идентификатор : 1
Формат : MPEG Audio
Версия формата : Version 1
Профиль формата : Layer 3
Режим : Joint stereo
Расширение режима : MS Stereo
Идентификатор кодека : 55
Идентификатор кодека/Подсказка : MP3
Продолжительность : 26 с.
Вид битрейта : Постоянный
Битрейт : 128 Кбит/сек
Каналы : 2 канала
Частота : 44,1 КГц
Метод сжатия : С потерями
Задержка видео : 67 мс.
Размер потока : 413 Кбайт (11%)
Выравнивание : Соединение по промежуткам
Продолжительность промежутка : 26 мс. (0,39 видеокадр)
Время предзагрузки промежутка : 522 мс.
Библиотека кодирования : LAME3.98
Общее
Полное имя : D:\nnm\razdacha\Introduction to Corel Painter\Introduction to Corel Painter\02 Lecture_1.avi
Формат : AVI
Формат/Информация : Audio Video Interleave
Размер файла : 50,7 Мбайт
Продолжительность : 10 м.
Общий поток : 685 Кбит/сек
Программа кодирования : MEncoder SVN-r29352(20090610-gcc4.3.3)
Библиотека кодирования : MPlayer
Видео
Идентификатор : 0
Формат : MPEG-4 Visual
Профиль формата : Advanced [email protected]
Параметр BVOP формата : 2
Параметр QPel формата : Нет
Параметр GMC формата : Без точки перехода
Параметр матрицы формата : Default (H.263)
Идентификатор кодека : XVID
Идентификатор кодека/Подсказка : XviD
Продолжительность : 10 м.
Битрейт : 547 Кбит/сек
Ширина : 1024 пикселя
Высота : 768 пикселей
Соотношение сторон : 4:3
Частота кадров : 14,147 кадров/сек
Цветовое пространство : YUV
Субдискретизация насыщенности : 4:2:0
Битовая глубина : 8 бит
Тип развёртки : Прогрессивная
Метод сжатия : С потерями
Бит/(Пиксели*Кадры) : 0.049
Размер потока : 40,5 Мбайт (80%)
Библиотека кодирования : XviD 1.2.1 (UTC 2008-12-04)
Аудио
Идентификатор : 1
Формат : MPEG Audio
Версия формата : Version 1
Профиль формата : Layer 3
Режим : Joint stereo
Расширение режима : MS Stereo
Идентификатор кодека : 55
Идентификатор кодека/Подсказка : MP3
Продолжительность : 10 м.
Вид битрейта : Постоянный
Битрейт : 128 Кбит/сек
Каналы : 2 канала
Частота : 44,1 КГц
Метод сжатия : С потерями
Задержка видео : 71 мс.
Размер потока : 9,48 Мбайт (19%)
Выравнивание : Соединение по промежуткам
Продолжительность промежутка : 26 мс. (0,37 видеокадр)
Время предзагрузки промежутка : 522 мс.
Библиотека кодирования : LAME3.98
Общее
Полное имя : D:\nnm\razdacha\Introduction to Corel Painter\Introduction to Corel Painter\03 Lecture_2.avi
Формат : AVI
Формат/Информация : Audio Video Interleave
Размер файла : 8,52 Мбайт
Продолжительность : 2 м. 53 с.
Общий поток : 412 Кбит/сек
Программа кодирования : MEncoder SVN-r29352(20090610-gcc4.3.3)
Библиотека кодирования : MPlayer
Видео
Идентификатор : 0
Формат : MPEG-4 Visual
Профиль формата : Advanced [email protected]
Параметр BVOP формата : 2
Параметр QPel формата : Нет
Параметр GMC формата : Без точки перехода
Параметр матрицы формата : Default (H.263)
Идентификатор кодека : XVID
Идентификатор кодека/Подсказка : XviD
Продолжительность : 2 м. 53 с.
Битрейт : 273 Кбит/сек
Ширина : 1024 пикселя
Высота : 768 пикселей
Соотношение сторон : 4:3
Частота кадров : 14,496 кадров/сек
Цветовое пространство : YUV
Субдискретизация насыщенности : 4:2:0
Битовая глубина : 8 бит
Тип развёртки : Прогрессивная
Метод сжатия : С потерями
Бит/(Пиксели*Кадры) : 0.024
Размер потока : 5,65 Мбайт (66%)
Библиотека кодирования : XviD 1.2.1 (UTC 2008-12-04)
Аудио
Идентификатор : 1
Формат : MPEG Audio
Версия формата : Version 1
Профиль формата : Layer 3
Режим : Joint stereo
Расширение режима : MS Stereo
Идентификатор кодека : 55
Идентификатор кодека/Подсказка : MP3
Продолжительность : 2 м. 53 с.
Вид битрейта : Постоянный
Битрейт : 128 Кбит/сек
Каналы : 2 канала
Частота : 44,1 КГц
Метод сжатия : С потерями
Задержка видео : 69 мс.
Размер потока : 2,65 Мбайт (31%)
Выравнивание : Соединение по промежуткам
Продолжительность промежутка : 26 мс. (0,38 видеокадр)
Время предзагрузки промежутка : 522 мс.
Библиотека кодирования : LAME3.98
Общее
Полное имя : D:\nnm\razdacha\Introduction to Corel Painter\Introduction to Corel Painter\04 Lecture_3.avi
Формат : AVI
Формат/Информация : Audio Video Interleave
Размер файла : 55,1 Мбайт
Продолжительность : 7 м. 41 с.
Общий поток : 1001 Кбит/сек
Программа кодирования : MEncoder SVN-r29352(20090610-gcc4.3.3)
Библиотека кодирования : MPlayer
Видео
Идентификатор : 0
Формат : MPEG-4 Visual
Профиль формата : Advanced [email protected]
Параметр BVOP формата : 2
Параметр QPel формата : Нет
Параметр GMC формата : Без точки перехода
Параметр матрицы формата : Default (H.263)
Идентификатор кодека : XVID
Идентификатор кодека/Подсказка : XviD
Продолжительность : 7 м. 41 с.
Битрейт : 863 Кбит/сек
Ширина : 1024 пикселя
Высота : 768 пикселей
Соотношение сторон : 4:3
Частота кадров : 12,439 кадров/сек
Цветовое пространство : YUV
Субдискретизация насыщенности : 4:2:0
Битовая глубина : 8 бит
Тип развёртки : Прогрессивная
Метод сжатия : С потерями
Бит/(Пиксели*Кадры) : 0.088
Размер потока : 47,5 Мбайт (86%)
Библиотека кодирования : XviD 1.2.1 (UTC 2008-12-04)
Аудио
Идентификатор : 1
Формат : MPEG Audio
Версия формата : Version 1
Профиль формата : Layer 3
Режим : Joint stereo
Расширение режима : MS Stereo
Идентификатор кодека : 55
Идентификатор кодека/Подсказка : MP3
Продолжительность : 7 м. 41 с.
Вид битрейта : Постоянный
Битрейт : 128 Кбит/сек
Каналы : 2 канала
Частота : 44,1 КГц
Метод сжатия : С потерями
Задержка видео : 80 мс.
Размер потока : 7,05 Мбайт (13%)
Выравнивание : Соединение по промежуткам
Продолжительность промежутка : 26 мс. (0,32 видеокадр)
Время предзагрузки промежутка : 522 мс.
Библиотека кодирования : LAME3.98
Общее
Полное имя : D:\nnm\razdacha\Introduction to Corel Painter\Introduction to Corel Painter\05 Lecture_4.avi
Формат : AVI
Формат/Информация : Audio Video Interleave
Размер файла : 18,8 Мбайт
Продолжительность : 5 м. 37 с.
Общий поток : 466 Кбит/сек
Программа кодирования : MEncoder SVN-r29352(20090610-gcc4.3.3)
Библиотека кодирования : MPlayer
Видео
Идентификатор : 0
Формат : MPEG-4 Visual
Профиль формата : Advanced [email protected]
Параметр BVOP формата : 2
Параметр QPel формата : Нет
Параметр GMC формата : Без точки перехода
Параметр матрицы формата : Default (H.263)
Идентификатор кодека : XVID
Идентификатор кодека/Подсказка : XviD
Продолжительность : 5 м. 37 с.
Битрейт : 328 Кбит/сек
Ширина : 1024 пикселя
Высота : 768 пикселей
Соотношение сторон : 4:3
Частота кадров : 14,357 кадров/сек
Цветовое пространство : YUV
Субдискретизация насыщенности : 4:2:0
Битовая глубина : 8 бит
Тип развёртки : Прогрессивная
Метод сжатия : С потерями
Бит/(Пиксели*Кадры) : 0.029
Размер потока : 13,2 Мбайт (70%)
Библиотека кодирования : XviD 1.2.1 (UTC 2008-12-04)
Аудио
Идентификатор : 1
Формат : MPEG Audio
Версия формата : Version 1
Профиль формата : Layer 3
Режим : Joint stereo
Расширение режима : MS Stereo
Идентификатор кодека : 55
Идентификатор кодека/Подсказка : MP3
Продолжительность : 5 м. 37 с.
Вид битрейта : Постоянный
Битрейт : 128 Кбит/сек
Каналы : 2 канала
Частота : 44,1 КГц
Метод сжатия : С потерями
Задержка видео : 70 мс.
Размер потока : 5,15 Мбайт (27%)
Выравнивание : Соединение по промежуткам
Продолжительность промежутка : 26 мс. (0,38 видеокадр)
Время предзагрузки промежутка : 522 мс.
Библиотека кодирования : LAME3.98ЄЄЄЄЄЄЄЄЄЄЄЄ
Общее
Полное имя : D:\nnm\razdacha\Introduction to Corel Painter\Introduction to Corel Painter\06 Lecture_5.avi
Формат : AVI
Формат/Информация : Audio Video Interleave
Размер файла : 122 Мбайт
Продолжительность : 26 м.
Общий поток : 643 Кбит/сек
Программа кодирования : MEncoder SVN-r29352(20090610-gcc4.3.3)
Библиотека кодирования : MPlayer
Видео
Идентификатор : 0
Формат : MPEG-4 Visual
Профиль формата : Advanced [email protected]
Параметр BVOP формата : 2
Параметр QPel формата : Нет
Параметр GMC формата : Без точки перехода
Параметр матрицы формата : Default (H.263)
Идентификатор кодека : XVID
Идентификатор кодека/Подсказка : XviD
Продолжительность : 26 м.
Битрейт : 505 Кбит/сек
Ширина : 1024 пикселя
Высота : 768 пикселей
Соотношение сторон : 4:3
Частота кадров : 13,516 кадров/сек
Цветовое пространство : YUV
Субдискретизация насыщенности : 4:2:0
Битовая глубина : 8 бит
Тип развёртки : Прогрессивная
Метод сжатия : С потерями
Бит/(Пиксели*Кадры) : 0.047
Размер потока : 95,6 Мбайт (79%)
Библиотека кодирования : XviD 1.2.1 (UTC 2008-12-04)
Аудио
Идентификатор : 1
Формат : MPEG Audio
Версия формата : Version 1
Профиль формата : Layer 3
Режим : Joint stereo
Расширение режима : MS Stereo
Идентификатор кодека : 55
Идентификатор кодека/Подсказка : MP3
Продолжительность : 26 м.
Вид битрейта : Постоянный
Битрейт : 128 Кбит/сек
Каналы : 2 канала
Частота : 44,1 КГц
Метод сжатия : С потерями
Задержка видео : 74 мс.
Размер потока : 24,2 Мбайт (20%)
Выравнивание : Соединение по промежуткам
Продолжительность промежутка : 26 мс. (0,35 видеокадр)
Время предзагрузки промежутка : 522 мс.
Библиотека кодирования : LAME3.98
Общее
Полное имя : D:\nnm\razdacha\Introduction to Corel Painter\Introduction to Corel Painter\07 Lecture_6.avi
Формат : AVI
Формат/Информация : Audio Video Interleave
Размер файла : 79,3 Мбайт
Продолжительность : 14 м.
Общий поток : 775 Кбит/сек
Программа кодирования : MEncoder SVN-r29352(20090610-gcc4.3.3)
Библиотека кодирования : MPlayer
Видео
Идентификатор : 0
Формат : MPEG-4 Visual
Профиль формата : Advanced [email protected]
Параметр BVOP формата : 2
Параметр QPel формата : Нет
Параметр GMC формата : Без точки перехода
Параметр матрицы формата : Default (H.263)
Идентификатор кодека : XVID
Идентификатор кодека/Подсказка : XviD
Продолжительность : 14 м.
Битрейт : 637 Кбит/сек
Ширина : 1024 пикселя
Высота : 768 пикселей
Соотношение сторон : 4:3
Частота кадров : 13,122 кадров/сек
Цветовое пространство : YUV
Субдискретизация насыщенности : 4:2:0
Битовая глубина : 8 бит
Тип развёртки : Прогрессивная
Метод сжатия : С потерями
Бит/(Пиксели*Кадры) : 0.062
Размер потока : 65,2 Мбайт (82%)
Библиотека кодирования : XviD 1.2.1 (UTC 2008-12-04)
Аудио
Идентификатор : 1
Формат : MPEG Audio
Версия формата : Version 1
Профиль формата : Layer 3
Режим : Joint stereo
Расширение режима : MS Stereo
Идентификатор кодека : 55
Идентификатор кодека/Подсказка : MP3
Продолжительность : 14 м.
Вид битрейта : Постоянный
Битрейт : 128 Кбит/сек
Каналы : 2 канала
Частота : 44,1 КГц
Метод сжатия : С потерями
Задержка видео : 76 мс.
Размер потока : 13,1 Мбайт (17%)
Выравнивание : Соединение по промежуткам
Продолжительность промежутка : 26 мс. (0,34 видеокадр)
Время предзагрузки промежутка : 522 мс.
Библиотека кодирования : LAME3.98
Общее
Полное имя : D:\nnm\razdacha\Introduction to Corel Painter\Introduction to Corel Painter\08 Lecture_7.avi
Формат : AVI
Формат/Информация : Audio Video Interleave
Размер файла : 84,0 Мбайт
Продолжительность : 16 м.
Общий поток : 713 Кбит/сек
Программа кодирования : MEncoder SVN-r29352(20090610-gcc4.3.3)
Библиотека кодирования : MPlayer
Видео
Идентификатор : 0
Формат : MPEG-4 Visual
Профиль формата : Advanced [email protected]
Параметр BVOP формата : 2
Параметр QPel формата : Нет
Параметр GMC формата : Без точки перехода
Параметр матрицы формата : Default (H.263)
Идентификатор кодека : XVID
Идентификатор кодека/Подсказка : XviD
Продолжительность : 16 м.
Битрейт : 575 Кбит/сек
Ширина : 1024 пикселя
Высота : 768 пикселей
Соотношение сторон : 4:3
Частота кадров : 12,947 кадров/сек
Цветовое пространство : YUV
Субдискретизация насыщенности : 4:2:0
Битовая глубина : 8 бит
Тип развёртки : Прогрессивная
Метод сжатия : С потерями
Бит/(Пиксели*Кадры) : 0.057
Размер потока : 67,7 Мбайт (81%)
Библиотека кодирования : XviD 1.2.1 (UTC 2008-12-04)
Аудио
Идентификатор : 1
Формат : MPEG Audio
Версия формата : Version 1
Профиль формата : Layer 3
Режим : Joint stereo
Расширение режима : MS Stereo
Идентификатор кодека : 55
Идентификатор кодека/Подсказка : MP3
Продолжительность : 16 м.
Вид битрейта : Постоянный
Битрейт : 128 Кбит/сек
Каналы : 2 канала
Частота : 44,1 КГц
Метод сжатия : С потерями
Задержка видео : 77 мс.
Размер потока : 15,1 Мбайт (18%)
Выравнивание : Соединение по промежуткам
Продолжительность промежутка : 26 мс. (0,34 видеокадр)
Время предзагрузки промежутка : 522 мс.
Библиотека кодирования : LAME3.98
Общее
Полное имя : D:\nnm\razdacha\Introduction to Corel Painter\Introduction to Corel Painter\09 Lecture_8.avi
Формат : AVI
Формат/Информация : Audio Video Interleave
Размер файла : 30,6 Мбайт
Продолжительность : 7 м. 46 с.
Общий поток : 550 Кбит/сек
Программа кодирования : MEncoder SVN-r29352(20090610-gcc4.3.3)
Библиотека кодирования : MPlayer
Видео
Идентификатор : 0
Формат : MPEG-4 Visual
Профиль формата : Advanced [email protected]
Параметр BVOP формата : 2
Параметр QPel формата : Нет
Параметр GMC формата : Без точки перехода
Параметр матрицы формата : Default (H.263)
Идентификатор кодека : XVID
Идентификатор кодека/Подсказка : XviD
Продолжительность : 7 м. 46 с.
Битрейт : 412 Кбит/сек
Ширина : 1024 пикселя
Высота : 768 пикселей
Соотношение сторон : 4:3
Частота кадров : 13,483 кадров/сек
Цветовое пространство : YUV
Субдискретизация насыщенности : 4:2:0
Битовая глубина : 8 бит
Тип развёртки : Прогрессивная
Метод сжатия : С потерями
Бит/(Пиксели*Кадры) : 0.039
Размер потока : 22,9 Мбайт (75%)
Библиотека кодирования : XviD 1.2.1 (UTC 2008-12-04)
Аудио
Идентификатор : 1
Формат : MPEG Audio
Версия формата : Version 1
Профиль формата : Layer 3
Режим : Joint stereo
Расширение режима : MS Stereo
Идентификатор кодека : 55
Идентификатор кодека/Подсказка : MP3
Продолжительность : 7 м. 46 с.
Вид битрейта : Постоянный
Битрейт : 128 Кбит/сек
Каналы : 2 канала
Частота : 44,1 КГц
Метод сжатия : С потерями
Задержка видео : 74 мс.
Размер потока : 7,12 Мбайт (23%)
Выравнивание : Соединение по промежуткам
Продолжительность промежутка : 26 мс. (0,35 видеокадр)
Время предзагрузки промежутка : 522 мс.
Библиотека кодирования : LAME3.98
Общее
Полное имя : D:\nnm\razdacha\Introduction to Corel Painter\Introduction to Corel Painter\10 Lecture_9.avi
Формат : AVI
Формат/Информация : Audio Video Interleave
Размер файла : 37,1 Мбайт
Продолжительность : 8 м. 14 с.
Общий поток : 629 Кбит/сек
Программа кодирования : MEncoder SVN-r29352(20090610-gcc4.3.3)
Библиотека кодирования : MPlayer
Видео
Идентификатор : 0
Формат : MPEG-4 Visual
Профиль формата : Advanced [email protected]
Параметр BVOP формата : 2
Параметр QPel формата : Нет
Параметр GMC формата : Без точки перехода
Параметр матрицы формата : Default (H.263)
Идентификатор кодека : XVID
Идентификатор кодека/Подсказка : XviD
Продолжительность : 8 м. 14 с.
Битрейт : 491 Кбит/сек
Ширина : 1024 пикселя
Высота : 768 пикселей
Соотношение сторон : 4:3
Частота кадров : 12,743 кадров/сек
Цветовое пространство : YUV
Субдискретизация насыщенности : 4:2:0
Битовая глубина : 8 бит
Тип развёртки : Прогрессивная
Метод сжатия : С потерями
Бит/(Пиксели*Кадры) : 0.049
Размер потока : 29,0 Мбайт (78%)
Библиотека кодирования : XviD 1.2.1 (UTC 2008-12-04)
Аудио
Идентификатор : 1
Формат : MPEG Audio
Версия формата : Version 1
Профиль формата : Layer 3
Режим : Joint stereo
Расширение режима : MS Stereo
Идентификатор кодека : 55
Идентификатор кодека/Подсказка : MP3
Продолжительность : 8 м. 14 с.
Вид битрейта : Постоянный
Битрейт : 128 Кбит/сек
Каналы : 2 канала
Частота : 44,1 КГц
Метод сжатия : С потерями
Задержка видео : 79 мс.
Размер потока : 7,55 Мбайт (20%)
Выравнивание : Соединение по промежуткам
Продолжительность промежутка : 26 мс. (0,33 видеокадр)
Время предзагрузки промежутка : 522 мс.
Библиотека кодирования : LAME3.98
Общее
Полное имя : D:\nnm\razdacha\Introduction to Corel Painter\Introduction to Corel Painter\11 Lecture_10.avi
Формат : AVI
Формат/Информация : Audio Video Interleave
Размер файла : 34,7 Мбайт
Продолжительность : 12 м.
Общий поток : 397 Кбит/сек
Программа кодирования : MEncoder SVN-r29352(20090610-gcc4.3.3)
Библиотека кодирования : MPlayer
Видео
Идентификатор : 0
Формат : MPEG-4 Visual
Профиль формата : Advanced [email protected]
Параметр BVOP формата : 2
Параметр QPel формата : Нет
Параметр GMC формата : Без точки перехода
Параметр матрицы формата : Default (H.263)
Идентификатор кодека : XVID
Идентификатор кодека/Подсказка : XviD
Продолжительность : 12 м.
Битрейт : 259 Кбит/сек
Ширина : 1024 пикселя
Высота : 768 пикселей
Соотношение сторон : 4:3
Частота кадров : 12,926 кадров/сек
Цветовое пространство : YUV
Субдискретизация насыщенности : 4:2:0
Битовая глубина : 8 бит
Тип развёртки : Прогрессивная
Метод сжатия : С потерями
Бит/(Пиксели*Кадры) : 0.025
Размер потока : 22,6 Мбайт (65%)
Библиотека кодирования : XviD 1.2.1 (UTC 2008-12-04)
Аудио
Идентификатор : 1
Формат : MPEG Audio
Версия формата : Version 1
Профиль формата : Layer 3
Режим : Joint stereo
Расширение режима : MS Stereo
Идентификатор кодека : 55
Идентификатор кодека/Подсказка : MP3
Продолжительность : 12 м.
Вид битрейта : Постоянный
Битрейт : 128 Кбит/сек
Каналы : 2 канала
Частота : 44,1 КГц
Метод сжатия : С потерями
Задержка видео : 77 мс.
Размер потока : 11,2 Мбайт (32%)
Выравнивание : Соединение по промежуткам
Продолжительность промежутка : 26 мс. (0,34 видеокадр)
Время предзагрузки промежутка : 522 мс.
Библиотека кодирования : LAME3.98
Общее
Полное имя : D:\nnm\razdacha\Introduction to Corel Painter\Introduction to Corel Painter\12 Lecture_11.avi
Формат : AVI
Формат/Информация : Audio Video Interleave
Размер файла : 71,3 Мбайт
Продолжительность : 23 м.
Общий поток : 418 Кбит/сек
Программа кодирования : MEncoder SVN-r29352(20090610-gcc4.3.3)
Библиотека кодирования : MPlayer
Видео
Идентификатор : 0
Формат : MPEG-4 Visual
Профиль формата : Advanced [email protected]
Параметр BVOP формата : 2
Параметр QPel формата : Нет
Параметр GMC формата : Без точки перехода
Параметр матрицы формата : Default (H.263)
Идентификатор кодека : XVID
Идентификатор кодека/Подсказка : XviD
Продолжительность : 23 м.
Битрейт : 281 Кбит/сек
Ширина : 1024 пикселя
Высота : 768 пикселей
Соотношение сторон : 4:3
Частота кадров : 9,226 кадров/сек
Цветовое пространство : YUV
Субдискретизация насыщенности : 4:2:0
Битовая глубина : 8 бит
Тип развёртки : Прогрессивная
Метод сжатия : С потерями
Бит/(Пиксели*Кадры) : 0.039
Размер потока : 47,9 Мбайт (67%)
Библиотека кодирования : XviD 1.2.1 (UTC 2008-12-04)
Аудио
Идентификатор : 1
Формат : MPEG Audio
Версия формата : Version 1
Профиль формата : Layer 3
Режим : Joint stereo
Расширение режима : MS Stereo
Идентификатор кодека : 55
Идентификатор кодека/Подсказка : MP3
Продолжительность : 23 м.
Вид битрейта : Постоянный
Битрейт : 128 Кбит/сек
Каналы : 2 канала
Частота : 44,1 КГц
Метод сжатия : С потерями
Задержка видео : 108 мс.
Размер потока : 21,8 Мбайт (31%)
Выравнивание : Соединение по промежуткам
Продолжительность промежутка : 26 мс. (0,24 видеокадр)
Время предзагрузки промежутка : 522 мс.
Библиотека кодирования : LAME3.98
Общее
Полное имя : D:\nnm\razdacha\Introduction to Corel Painter\Introduction to Corel Painter\13 Lecture_12.avi
Формат : AVI
Формат/Информация : Audio Video Interleave
Размер файла : 34,4 Мбайт
Продолжительность : 9 м. 3 с.
Общий поток : 531 Кбит/сек
Программа кодирования : MEncoder SVN-r29352(20090610-gcc4.3.3)
Библиотека кодирования : MPlayer
Видео
Идентификатор : 0
Формат : MPEG-4 Visual
Профиль формата : Advanced [email protected]
Параметр BVOP формата : 2
Параметр QPel формата : Нет
Параметр GMC формата : Без точки перехода
Параметр матрицы формата : Default (H.263)
Идентификатор кодека : XVID
Идентификатор кодека/Подсказка : XviD
Продолжительность : 9 м. 3 с.
Битрейт : 394 Кбит/сек
Ширина : 1024 пикселя
Высота : 768 пикселей
Соотношение сторон : 4:3
Частота кадров : 10,056 кадров/сек
Цветовое пространство : YUV
Субдискретизация насыщенности : 4:2:0
Битовая глубина : 8 бит
Тип развёртки : Прогрессивная
Метод сжатия : С потерями
Бит/(Пиксели*Кадры) : 0.050
Размер потока : 25,5 Мбайт (74%)
Библиотека кодирования : XviD 1.2.1 (UTC 2008-12-04)
Аудио
Идентификатор : 1
Формат : MPEG Audio
Версия формата : Version 1
Профиль формата : Layer 3
Режим : Joint stereo
Расширение режима : MS Stereo
Идентификатор кодека : 55
Идентификатор кодека/Подсказка : MP3
Продолжительность : 9 м. 3 с.
Вид битрейта : Постоянный
Битрейт : 128 Кбит/сек
Каналы : 2 канала
Частота : 44,1 КГц
Метод сжатия : С потерями
Задержка видео : 99 мс.
Размер потока : 8,29 Мбайт (24%)
Выравнивание : Соединение по промежуткам
Продолжительность промежутка : 26 мс. (0,26 видеокадр)
Время предзагрузки промежутка : 522 мс.
Библиотека кодирования : LAME3.98
Общее
Полное имя : D:\nnm\razdacha\Introduction to Corel Painter\Introduction to Corel Painter\14 Lecture_13.avi
Формат : AVI
Формат/Информация : Audio Video Interleave
Размер файла : 27,6 Мбайт
Продолжительность : 6 м. 53 с.
Общий поток : 559 Кбит/сек
Программа кодирования : MEncoder SVN-r29352(20090610-gcc4.3.3)
Библиотека кодирования : MPlayer
Видео
Идентификатор : 0
Формат : MPEG-4 Visual
Профиль формата : Advanced [email protected]
Параметр BVOP формата : 2
Параметр QPel формата : Нет
Параметр GMC формата : Без точки перехода
Параметр матрицы формата : Default (H.263)
Идентификатор кодека : XVID
Идентификатор кодека/Подсказка : XviD
Продолжительность : 6 м. 53 с.
Битрейт : 421 Кбит/сек
Ширина : 1024 пикселя
Высота : 768 пикселей
Соотношение сторон : 4:3
Частота кадров : 11,181 кадров/сек
Цветовое пространство : YUV
Субдискретизация насыщенности : 4:2:0
Битовая глубина : 8 бит
Тип развёртки : Прогрессивная
Метод сжатия : С потерями
Бит/(Пиксели*Кадры) : 0.048
Размер потока : 20,8 Мбайт (75%)
Библиотека кодирования : XviD 1.2.1 (UTC 2008-12-04)
Аудио
Идентификатор : 1
Формат : MPEG Audio
Версия формата : Version 1
Профиль формата : Layer 3
Режим : Joint stereo
Расширение режима : MS Stereo
Идентификатор кодека : 55
Идентификатор кодека/Подсказка : MP3
Продолжительность : 6 м. 53 с.
Вид битрейта : Постоянный
Битрейт : 128 Кбит/сек
Каналы : 2 канала
Частота : 44,1 КГц
Метод сжатия : С потерями
Задержка видео : 89 мс.
Размер потока : 6,31 Мбайт (23%)
Выравнивание : Соединение по промежуткам
Продолжительность промежутка : 26 мс. (0,29 видеокадр)
Время предзагрузки промежутка : 522 мс.
Библиотека кодирования : LAME3.98
Общее
Полное имя : D:\nnm\razdacha\Introduction to Corel Painter\Introduction to Corel Painter\15 Lecture_14.avi
Формат : AVI
Формат/Информация : Audio Video Interleave
Размер файла : 16,6 Мбайт
Продолжительность : 4 м. 1 с.
Общий поток : 578 Кбит/сек
Программа кодирования : MEncoder SVN-r29352(20090610-gcc4.3.3)
Библиотека кодирования : MPlayer
Видео
Идентификатор : 0
Формат : MPEG-4 Visual
Профиль формата : Advanced [email protected]
Параметр BVOP формата : 2
Параметр QPel формата : Нет
Параметр GMC формата : Без точки перехода
Параметр матрицы формата : Default (H.263)
Идентификатор кодека : XVID
Идентификатор кодека/Подсказка : XviD
Продолжительность : 4 м. 1 с.
Битрейт : 440 Кбит/сек
Ширина : 1024 пикселя
Высота : 768 пикселей
Соотношение сторон : 4:3
Частота кадров : 12,673 кадров/сек
Цветовое пространство : YUV
Субдискретизация насыщенности : 4:2:0
Битовая глубина : 8 бит
Тип развёртки : Прогрессивная
Метод сжатия : С потерями
Бит/(Пиксели*Кадры) : 0.044
Размер потока : 12,6 Мбайт (76%)
Библиотека кодирования : XviD 1.2.1 (UTC 2008-12-04)
Аудио
Идентификатор : 1
Формат : MPEG Audio
Версия формата : Version 1
Профиль формата : Layer 3
Режим : Joint stereo
Расширение режима : MS Stereo
Идентификатор кодека : 55
Идентификатор кодека/Подсказка : MP3
Продолжительность : 4 м. 1 с.
Вид битрейта : Постоянный
Битрейт : 128 Кбит/сек
Каналы : 2 канала
Частота : 44,1 КГц
Метод сжатия : С потерями
Задержка видео : 79 мс.
Размер потока : 3,68 Мбайт (22%)
Выравнивание : Соединение по промежуткам
Продолжительность промежутка : 26 мс. (0,33 видеокадр)
Время предзагрузки промежутка : 522 мс.
Библиотека кодирования : LAME3.98
Общее
Полное имя : D:\nnm\razdacha\Introduction to Corel Painter\Introduction to Corel Painter\16 Lecture_15.avi
Формат : AVI
Формат/Информация : Audio Video Interleave
Размер файла : 102 Мбайт
Продолжительность : 18 м.
Общий поток : 760 Кбит/сек
Программа кодирования : MEncoder SVN-r29352(20090610-gcc4.3.3)
Библиотека кодирования : MPlayer
Видео
Идентификатор : 0
Формат : MPEG-4 Visual
Профиль формата : Advanced [email protected]
Параметр BVOP формата : 2
Параметр QPel формата : Нет
Параметр GMC формата : Без точки перехода
Параметр матрицы формата : Default (H.263)
Идентификатор кодека : XVID
Идентификатор кодека/Подсказка : XviD
Продолжительность : 18 м.
Битрейт : 623 Кбит/сек
Ширина : 1024 пикселя
Высота : 768 пикселей
Соотношение сторон : 4:3
Частота кадров : 11,281 кадров/сек
Цветовое пространство : YUV
Субдискретизация насыщенности : 4:2:0
Битовая глубина : 8 бит
Тип развёртки : Прогрессивная
Метод сжатия : С потерями
Бит/(Пиксели*Кадры) : 0.070
Размер потока : 83,8 Мбайт (82%)
Библиотека кодирования : XviD 1.2.1 (UTC 2008-12-04)
Аудио
Идентификатор : 1
Формат : MPEG Audio
Версия формата : Version 1
Профиль формата : Layer 3
Режим : Joint stereo
Расширение режима : MS Stereo
Идентификатор кодека : 55
Идентификатор кодека/Подсказка : MP3
Продолжительность : 18 м.
Вид битрейта : Постоянный
Битрейт : 128 Кбит/сек
Каналы : 2 канала
Частота : 44,1 КГц
Метод сжатия : С потерями
Задержка видео : 89 мс.
Размер потока : 17,2 Мбайт (17%)
Выравнивание : Соединение по промежуткам
Продолжительность промежутка : 26 мс. (0,29 видеокадр)
Время предзагрузки промежутка : 522 мс.
Библиотека кодирования : LAME3.98ЄЄЄЄЄЄЄЄЄЄЄЄ
Общее
Полное имя : D:\nnm\razdacha\Introduction to Corel Painter\Introduction to Corel Painter\17 Lecture_16.avi
Формат : AVI
Формат/Информация : Audio Video Interleave
Размер файла : 33,7 Мбайт
Продолжительность : 6 м. 29 с.
Общий поток : 727 Кбит/сек
Программа кодирования : MEncoder SVN-r29352(20090610-gcc4.3.3)
Библиотека кодирования : MPlayer
Видео
Идентификатор : 0
Формат : MPEG-4 Visual
Профиль формата : Advanced [email protected]
Параметр BVOP формата : 2
Параметр QPel формата : Нет
Параметр GMC формата : Без точки перехода
Параметр матрицы формата : Default (H.263)
Идентификатор кодека : XVID
Идентификатор кодека/Подсказка : XviD
Продолжительность : 6 м. 29 с.
Битрейт : 589 Кбит/сек
Ширина : 1024 пикселя
Высота : 768 пикселей
Соотношение сторон : 4:3
Частота кадров : 12,037 кадров/сек
Цветовое пространство : YUV
Субдискретизация насыщенности : 4:2:0
Битовая глубина : 8 бит
Тип развёртки : Прогрессивная
Метод сжатия : С потерями
Бит/(Пиксели*Кадры) : 0.062
Размер потока : 27,3 Мбайт (81%)
Библиотека кодирования : XviD 1.2.1 (UTC 2008-12-04)
Аудио
Идентификатор : 1
Формат : MPEG Audio
Версия формата : Version 1
Профиль формата : Layer 3
Режим : Joint stereo
Расширение режима : MS Stereo
Идентификатор кодека : 55
Идентификатор кодека/Подсказка : MP3
Продолжительность : 6 м. 29 с.
Вид битрейта : Постоянный
Битрейт : 128 Кбит/сек
Каналы : 2 канала
Частота : 44,1 КГц
Метод сжатия : С потерями
Задержка видео : 83 мс.
Размер потока : 5,94 Мбайт (18%)
Выравнивание : Соединение по промежуткам
Продолжительность промежутка : 26 мс. (0,31 видеокадр)
Время предзагрузки промежутка : 522 мс.
Библиотека кодирования : LAMEЄЄ4sЎ3ф«† F8
Общее
Полное имя : D:\nnm\razdacha\Introduction to Corel Painter\Introduction to Corel Painter\18 Lecture_17.avi
Формат : AVI
Формат/Информация : Audio Video Interleave
Размер файла : 89,6 Мбайт
Продолжительность : 17 м.
Общий поток : 725 Кбит/сек
Программа кодирования : MEncoder SVN-r29352(20090610-gcc4.3.3)
Библиотека кодирования : MPlayer
Видео
Идентификатор : 0
Формат : MPEG-4 Visual
Профиль формата : Advanced [email protected]
Параметр BVOP формата : 2
Параметр QPel формата : Нет
Параметр GMC формата : Без точки перехода
Параметр матрицы формата : Default (H.263)
Идентификатор кодека : XVID
Идентификатор кодека/Подсказка : XviD
Продолжительность : 17 м.
Битрейт : 587 Кбит/сек
Ширина : 1024 пикселя
Высота : 768 пикселей
Соотношение сторон : 4:3
Частота кадров : 12,731 кадров/сек
Цветовое пространство : YUV
Субдискретизация насыщенности : 4:2:0
Битовая глубина : 8 бит
Тип развёртки : Прогрессивная
Метод сжатия : С потерями
Бит/(Пиксели*Кадры) : 0.059
Размер потока : 72,6 Мбайт (81%)
Библиотека кодирования : XviD 1.2.1 (UTC 2008-12-04)
Аудио
Идентификатор : 1
Формат : MPEG Audio
Версия формата : Version 1
Профиль формата : Layer 3
Режим : Joint stereo
Расширение режима : MS Stereo
Идентификатор кодека : 55
Идентификатор кодека/Подсказка : MP3
Продолжительность : 17 м.
Вид битрейта : Постоянный
Битрейт : 128 Кбит/сек
Каналы : 2 канала
Частота : 44,1 КГц
Метод сжатия : С потерями
Задержка видео : 79 мс.
Размер потока : 15,8 Мбайт (18%)
Выравнивание : Соединение по промежуткам
Продолжительность промежутка : 26 мс. (0,33 видеокадр)
Время предзагрузки промежутка : 522 мс.
Библиотека кодирования : LAME3.98
Общее
Полное имя : D:\nnm\razdacha\Introduction to Corel Painter\Introduction to Corel Painter\19 bonus.avi
Формат : AVI
Формат/Информация : Audio Video Interleave
Размер файла : 15,1 Мбайт
Продолжительность : 1 м. 40 с.
Общий поток : 1257 Кбит/сек
Программа кодирования : MEncoder SVN-r29352(20090610-gcc4.3.3)
Библиотека кодирования : MPlayer
Видео
Идентификатор : 0
Формат : MPEG-4 Visual
Профиль формата : Advanced [email protected]
Параметр BVOP формата : 2
Параметр QPel формата : Нет
Параметр GMC формата : Без точки перехода
Параметр матрицы формата : Default (H.263)
Идентификатор кодека : XVID
Идентификатор кодека/Подсказка : XviD
Продолжительность : 1 м. 40 с.
Битрейт : 1119 Кбит/сек
Ширина : 640 пикселей
Высота : 480 пикселей
Соотношение сторон : 4:3
Частота кадров : 14,985 кадров/сек
Цветовое пространство : YUV
Субдискретизация насыщенности : 4:2:0
Битовая глубина : 8 бит
Тип развёртки : Прогрессивная
Метод сжатия : С потерями
Бит/(Пиксели*Кадры) : 0.243
Размер потока : 13,4 Мбайт (89%)
Библиотека кодирования : XviD 1.2.1 (UTC 2008-12-04)
Аудио
Идентификатор : 1
Формат : MPEG Audio
Версия формата : Version 1
Профиль формата : Layer 3
Режим : Joint stereo
Расширение режима : MS Stereo
Идентификатор кодека : 55
Идентификатор кодека/Подсказка : MP3
Продолжительность : 1 м. 40 с.
Вид битрейта : Постоянный
Битрейт : 128 Кбит/сек
Каналы : 2 канала
Частота : 44,1 КГц
Метод сжатия : С потерями
Задержка видео : 67 мс.
Размер потока : 1,54 Мбайт (10%)
Выравнивание : Соединение по промежуткам
Продолжительность промежутка : 26 мс. (0,39 видеокадр)
Время предзагрузки промежутка : 522 мс.
Библиотека кодирования : LAME3.98

Список уроков:

* Вступительное слово автора
1. Setting up the Painter Workspace
2. Preferences
3. Image Navigation
4. Customizing Hot Keys
5. Painter's brushes
6. Using Layers
7. Using Papers
8. Shapes
9. Effects
10. Starting a Painting
11. Monochromatic sketching
12. Refining Design and Composition
13. Local Color Pass
14. Lighting and Atmosphere
15. Adding Texture and Details
16. Adding Drama, Depth and Mood
17. Finished Rendering
*Авторские работы
Скриншоты:
       
Время раздачи: почти всегда
Other forum [Profile] [PM]
Similar theme
Forum Topic Author Torrent Replies Last Post
./templates/default/images/folder_dl.gif Зарубежное кино Джек – покоритель великанов / Jack the Giant Slayer (Брайан Сингер / Bryan Singer) [2013, США, фэнтези, приключения, BDRip 720p] Dub + Original (Eng) + Ukr (Dub) + Sub (Rus, Eng) Omen
1 | 0

0 | 590

1

2014-01-05 20:00
Omen Latest
Display posts from previous:    
Reply to topic

The time now is: Today 15:21

All times are GMT + 3 Hours



You cannot post new topics in this forum
You cannot reply to topics in this forum
You cannot edit your posts in this forum
You cannot delete your posts in this forum
You cannot vote in polls in this forum
You cannot attach files in this forum
You cannot download files in this forum