Today is a free download without charge Download

video2brain|Getting Started with SpeedGrade CS6 (22.06.2012) (EN) PCRec

Reply to topic
 
Author
Message

Omen ®

Longevity: 7 years 10 months

Posts: 181087

Торрент-статистика

Post 14-Jan-2013 21:02

[Quote]

- video2brain|Getting Started with SpeedGrade CS6 (22.06.2012) (EN) PCRec- Автор (режиссер): Chad Perkins
Название: Getting Started with SpeedGrade CS6
Сайт производителя: video2brain
Год выпуска:22.06.2012
Жанр: Видеообучение
Язык: English
Качество видео: PCRec
Продолжительность: 2часа 10 минут
Видеокодек: AVC (MPEG-4)
Битрейт видео: ~300 kbps
Размер кадра: 1280 x 720
Аудиокодек: AC3 2.0
Битрейт аудио: 44,1kHz
Описание:
Видеоуроки от компании video2brain к программному обеспечению Adobe SpeedGrade CS6 являющемся инструментом профессиональной цветокоррекции в реальном времени. Adobe SpeedGrade CS6 позволяет моментально просматривать изменения при создании видеопроектов и редактировании отснятого материала. Механизм Lumetri Deep Color Engine с поддержкой 64-разрядных вычислений и функцией ускорения графического процессора предлагает оптимизированную производительность независимо от разрешения и размера кадра. Adobe SpeedGrade предоставляет функции управления освещением и цветом в видеоматериалах, а также широкую поддержку видеоформатов, в том числе RAW, HDR и стереоскопических форматов, позволяет применять HDR-эффекты к контенту RAW и завершенным проектам.

Дополнительная информация:

- Широкая поддержка форматов: RAW, HDR (High Dynamic Range), DPX, R3D, EDL, Phantom RAW, SI2K RAW, QuikTime, OpenEXR и стерео.
- Импорт последовательностей из Adobe Premiere Pro CS6 для более глубокой цветокоррекции.
- Большая библиотека профессиональных Look.
- Реалтаймовый плэйбек, скалинг, изменение частоты кадров и т.д.
- Adobe SpeedGrade CS6 и движок Adobe SpeedGrade Lumetri Deep Color Engine оптимизирован для графических процессоров NVIDIA Quadro с с эксклюзивной поддержкой видеокарт NVIDIA SDI Output. Рекомендованные видеокарты: Quadro 4000, Quadro 5000 и Quadro 6000.
Adobe SpeedGrade CS6 и NVIDIA Quadro

Media Info:

General
Complete name : D:\video2brain – Getting Started with SpeedGrade CS6\video2brain - Getting Started with SpeedGrade CS6 - English\01_Introduction_to_SpeedGrade\01_02-v2b-StartSpeedGradeCS6.mp4
Format : MPEG-4
Format profile : Base Media
Codec ID : isom
File size : 6.46 MiB
Duration : 1mn 47s
Overall bit rate : 505 Kbps
Writing application : Lavf53.12.0
Video
ID : 1
Format : AVC
Format/Info : Advanced Video Codec
Format profile : [url=mailto:[email protected]][email protected][/url]
Format settings, CABAC : Yes
Format settings, ReFrames : 4 frames
Codec ID : avc1
Codec ID/Info : Advanced Video Coding
Duration : 1mn 47s
Bit rate : 371 Kbps
Width : 1 280 pixels
Height : 720 pixels
Display aspect ratio : 16:9
Frame rate mode : Constant
Frame rate : 25.000 fps
Color space : YUV
Chroma subsampling : 4:2:0
Bit depth : 8 bits
Scan type : Progressive
Bits/(Pixel*Frame) : 0.016
Stream size : 4.75 MiB (73%)
Writing library : x264 core 116 r2074 2641b9e
Encoding settings : cabac=1 / ref=3 / deblock=1:0:0 / analyse=0x3:0x113 / me=hex / subme=7 / psy=1 / psy_rd=1.00:0.00 / mixed_ref=1 / me_range=16 / chroma_me=1 / trellis=1 / 8x8dct=1 / cqm=0 / deadzone=21,11 / fast_pskip=1 / chroma_qp_offset=-2 / threads=12 / sliced_threads=0 / nr=0 / decimate=1 / interlaced=0 / bluray_compat=0 / constrained_intra=0 / bframes=3 / b_pyramid=2 / b_adapt=1 / b_bias=0 / direct=1 / weightb=1 / open_gop=0 / weightp=2 / keyint=50 / keyint_min=5 / scenecut=40 / intra_refresh=0 / rc_lookahead=40 / rc=crf / mbtree=1 / crf=23.0 / qcomp=0.60 / qpmin=0 / qpmax=69 / qpstep=4 / ip_ratio=1.40 / aq=1:1.00
Audio
ID : 2
Format : AAC
Format/Info : Advanced Audio Codec
Format profile : LC
Codec ID : 40
Duration : 1mn 47s
Bit rate mode : Constant
Bit rate : 128 Kbps
Channel(s) : 1 channel
Channel positions : Front: C
Sampling rate : 44.1 KHz
Compression mode : Lossy
Delay relative to video : -2ms
Stream size : 1.64 MiB (25%)
Скриншоты:
     
Other forum [Profile] [PM]
Display posts from previous:    
Reply to topic

The time now is: Today 15:17

All times are GMT + 3 Hours



You cannot post new topics in this forum
You cannot reply to topics in this forum
You cannot edit your posts in this forum
You cannot delete your posts in this forum
You cannot vote in polls in this forum
You cannot attach files in this forum
You cannot download files in this forum