Today is a free download without charge Download

Изготовление и монтаж кухонной столешницы из бетона | Pour in Place Concrete Counter Tops [2011] SATRip

Reply to topic
 
Author
Message

Omen ®

Longevity: 7 years 10 months

Posts: 181087

Торрент-статистика

Post 14-Jan-2013 21:02

[Quote]

- Изготовление и монтаж кухонной столешницы из бетона | Pour in Place Concrete Counter Tops [2011] SATRip- Название: Изготовление и монтаж кухонной столешницы из бетона
Оригинальное название: Pour in Place Concrete Counter Tops
Издатель: Stegmeier Corporation
Сайт: http://www.stegmeier.com/
Год выпуска: 2011
Жанр: Обучающее видео, Дизайн
Язык: Английский
Перевод: Отсутствует
Качество видео: SATRip
Продолжительность: 00:20:55
Видеокодек: XviD
Битрейт видео: ~705 Кбит/сек
Размер кадра: 320x240
Аудиокодек: MP3, 2ch
Битрейт аудио: 128 Кбит/сек
Описание:-На примере, шаг за шагом, показано как в домашних условиях
изготовить кухонную столешницу из бетона.-

MediaInfo:

Общее
Полное имя : столешницы из бетона.avi
Формат : AVI
Формат/Информация : Audio Video Interleave
Размер файла : 127 Мбайт
Продолжительность : 20 м.
Общий поток : 846 Кбит/сек
Программа кодирования : Lavf52.56.1
Видео
Идентификатор : 0
Формат : xvid
Идентификатор кодека : xvid
Продолжительность : 20 м.
Битрейт : 705 Кбит/сек
Ширина : 320 пикселей
Высота : 240 пикселей
Соотношение сторон : 4:3
Частота кадров : 29,000 кадров/сек
Бит/(Пиксели*Кадры) : 0.317
Размер потока : 106 Мбайт (83%)
Аудио
Идентификатор : 1
Формат : MPEG Audio
Версия формата : Version 1
Профиль формата : Layer 3
Режим : Joint stereo
Расширение режима : MS Stereo
Идентификатор кодека : 55
Идентификатор кодека/Подсказка : MP3
Продолжительность : 20 м.
Вид битрейта : Постоянный
Битрейт : 128 Кбит/сек
Каналы : 2 канала
Частота : 44,1 КГц
Метод сжатия : С потерями
Размер потока : 19,2 Мбайт (15%)
Выравнивание : Соединение по промежуткам
Продолжительность промежутка : 26 мс. (0,76 видеокадр)
Скриншоты:
           
Время раздачи: 24/7 До 10-ти скачавших
Other forum [Profile] [PM]
Display posts from previous:    
Reply to topic

The time now is: Today 14:25

All times are GMT + 3 Hours



You cannot post new topics in this forum
You cannot reply to topics in this forum
You cannot edit your posts in this forum
You cannot delete your posts in this forum
You cannot vote in polls in this forum
You cannot attach files in this forum
You cannot download files in this forum