Today is a free download without charge Download

Такаши Амано | Акваскейпинг от Такаши Амано [2011] DVDRip

Reply to topic
 
Author
Message

Omen ®

Longevity: 7 years 10 months

Posts: 181087

Торрент-статистика

Post 14-Jan-2013 21:02

[Quote]

-Такаши Амано | Акваскейпинг от Такаши Амано [2011] DVDRip- Автор: Такаши Амано
Название: Акваскейпинг от Такаши Амано
Год выпуска: 2011
Сайт: http://www.adana.co.jp/en/
Жанр: Обучающее видео, Дизайн
Перевод: Одноголосый закадровый
Качество видео: DVDRip
Продолжительность: 00:52:00
Видеокодек: XviD
Битрейт видео: ~1626 Кбит/сек
Размер кадра: 512x384
Аудиокодек: MP3, 2ch
Битрейт аудио: 128 Кбит/сек--Описание:
Аквариумистика - весьма распространенное и разностороннее в наше время хобби, при этом все аквариумисты, и опытные и только начинающие, пытаются создать в своем аквариуме прекрасный живой мир с разнообразными растениями, рыбками, превращая свои аквариумы в настоящие произведения искусства.
Человек, благодаря которому возрос интерес к искусству оформления и содержания аквариумов, является истинным гуру аквариумистики, и зовут его Такаши Амано.
Запись выступления знаменитого аквадизайнера Такаси Амано из зал Крокус Экспо . Японец продемонстрировал по офрмлению аквариума. Материал будет интересен всем аквариумистам, желающим постичь стиль "Природный аквариум", а так же всем интересующимся этой темой
Прекрасный подводный пейзаж, сотворенный за 1 час прямо на глазах публики, стал еще одним маленьким шедевром. Такаси Амано оформил акваскейп "с нуля", и использовал живые растения и коряги.--

Дополнительная информация:

Takashi Amano – дизайнер, фотограф и аквариумист, основатель компании под названием Aqua Design Amano, где внедряет японские принципы садоводства в сфере акваскейпинга. Акваскeйпинг - это искусство оформления аквариумов, при котором сам аквариум становится живой картиной, превращая обычный аквариум на шедевр природы. Его аквариумные композиции включают замысловатое, типично асимметрическое (хотя и сбалансированное) расположение аквариумных растений, эффектность которых усиливается добавлением разнообразных речных камней и коряг. Подводные картины автора часто имитируют природу и ее внешний облик. Такой аквариум по праву может считаться произведением искусства.
Такаши Амано ещё в раннем возрасте чрезвычайно увлекался подводными растениями и животными, часто создавал и фотографировал свои сады. С возрастом начал публиковать фотографии и эссе на тему тропических рыб и растений тропических рек, много путешествуя по Африке, Азии и южным островам Японии.
Amano автор книги "Природный аквариумный мир" (Nature Aquarium World), и серии книг по акваскейпингу и о пресноводных аквариумных растениях и рыбках. Он также издал книгу "Рай аквариумных растений" (Aquarium Plant Paradise). Книги Амано издаются миллионными тиражами и переводятся в лучших бюро переводов почти на все языки мира.
Такаши Амано лично участвует в разработке аквариумов и принимает заказы по обустройству аквариумов от самых известных людей планеты, которые желают чтобы их маленький подводный мир включал все технические нововведения знаменитого аква-дизайнера.
       
       

MediaInfo:

Общее
Полное имя : Takashi_Amanos.Master.avi
Формат : AVI
Формат/Информация : Audio Video Interleave
Размер файла : 664 Мбайт
Продолжительность : 52 м.
Общий поток : 1763 Кбит/сек
Программа кодирования : VirtualDubMod 1.5.10.1 (build 2366/release)
Библиотека кодирования : VirtualDubMod build 2366/release
Видео
Идентификатор : 0
Формат : MPEG-4 Visual
Профиль формата : Advanced [email protected]
Параметр BVOP формата : 1
Параметр QPel формата : Нет
Параметр GMC формата : Без точки перехода
Параметр матрицы формата : Выборочная
Идентификатор кодека : XVID
Идентификатор кодека/Подсказка : XviD
Продолжительность : 52 м.
Битрейт : 1626 Кбит/сек
Ширина : 512 пикселей
Высота : 384 пикселя
Соотношение сторон : 4:3
Частота кадров : 25,000 кадров/сек
Цветовое пространство : YUV
Субдискретизация насыщенности : 4:2:0
Битовая глубина : 8 бит
Тип развёртки : Прогрессивная
Метод сжатия : С потерями
Бит/(Пиксели*Кадры) : 0.331
Размер потока : 613 Мбайт (92%)
Библиотека кодирования : XviD 64
Аудио
Идентификатор : 1
Формат : MPEG Audio
Версия формата : Version 1
Профиль формата : Layer 3
Режим : Joint stereo
Расширение режима : MS Stereo
Идентификатор кодека : 55
Идентификатор кодека/Подсказка : MP3
Продолжительность : 52 м.
Вид битрейта : Постоянный
Битрейт : 128 Кбит/сек
Каналы : 2 канала
Частота : 48,0 КГц
Метод сжатия : С потерями
Размер потока : 48,2 Мбайт (7%)
Выравнивание : Соединение по промежуткам
Продолжительность промежутка : 40 мс. (1,00 видеокадр)
Время предзагрузки промежутка : 504 мс.
Язык : English
Скриншоты:
         
Время раздачи: 24/7 До 10-ти скачавших
Other forum [Profile] [PM]
Display posts from previous:    
Reply to topic

The time now is: Today 10:05

All times are GMT + 3 Hours



You cannot post new topics in this forum
You cannot reply to topics in this forum
You cannot edit your posts in this forum
You cannot delete your posts in this forum
You cannot vote in polls in this forum
You cannot attach files in this forum
You cannot download files in this forum