Today is a free download without charge Download

Дачный ответ - 2012 (Мегапак) (41 выпуск) (2012) SATRip, IPTVRip

Reply to topic
 
Author
Message

Omen ®

Longevity: 7 years 10 months

Posts: 181087

Торрент-статистика

Post 14-Jan-2013 21:02

[Quote]

- Дачный ответ - 2012 (Мегапак) (41 выпуск) SATRip, IPTVRip- Автор: НТВ
Название: Дачный ответ - 2012 (Мегапак)
Год выпуска: 2012
Жанр: Обучающее видео
Описание:
С каждым днем все больше горожан стремятся перебраться поближе к природе. Как превратить свой загородный дом в удобное для жизни пространство, а заросший сорняками пустырь — в настоящий английский газон? Пожалуй, не все современные дачники могут дать ответ. Специально для них в юбилейном сезоне канал НТВ создал программу, которая подарит сотни идей и расскажет, как сделать загородную жизнь максимально комфортной.
«Дачный ответ» — это кладезь полезных советов. Что можно создать или переделать у себя на даче и как при этом избежать неоправданных расходов? В копилке программы — ответы на все возможные вопросы благоустройства дома и приусадебного участка, а также — ценные рекомендации экспертов.
Перед съемочной группой открываются ворота загородных коттеджей российских звезд и старинных европейских поместий. Подобные экскурсии в мир роскоши и комфорта дадут зрителям пищу для новых идей и смелых проектов.
Ведущие: Татьяна Грамон, Ольга Прохорова и Андрей Довгопол
Продолжительность: 40х ~ 00:50:00
Качество видео: SATRip, IPTVRip
Видеокодек: XviD
Битрейт видео: 1296-1804 kbps
Размер кадра: 640х480, 704х528, 720х540, at 25.000 кадр/сек
Аудиокодек: MPEG Audio layer 3, 96, 128, 256 Кбит/сек, 48 Кгц, 2 канала

История обновлений:

Добавлено 30.12.2012
Интердеревня (эфир от 30.04.2012) SATRip
Кухня-столовая с полотен Кандинского (эфир от 13.05.2012) SATRip
Петухи и маки (эфир от 20.05.2012) SATRip
«Шотландка» и рога (эфир от 27.05.2012) SATRip
Двери исчезают в полдень (эфир от 03.06.2012) SATRip
Новый старый дом" (эфир от 11.06.2012) SATRip
Цветы и птицы". (эфир от 17.06.2012) SATRip
Ну очень английская гостиная" (эфир от 24.06.2012) SATRip
Льняная мансарда (эфир от 01.07.2012) IPTVRip
Шашлык, кино и караоке (эфир от 08.07.2012) IPTVRip
Утиное озеро (эфир от 15.07.2012) IPTVRip
Веранда с историей (эфир от 09.09.2012) IPTVRip
Подземелье для сокровищ (эфир от 16.09.2012) IPTVRip
Избушка на опушке (эфир от 23.09.2012) IPTVRip
Упражнения в архитектурном оригами (эфир от 30.09.2012) SATRip
Гламурный предбанник (эфир от 07.10.2012) SATRip
Ванная под открытым небом (эфир от 14.10.2012) SATRip
С оттенком рококо (эфир от 21.10.2012) SATRip
Павильон «Четыре сезона» (эфир от 28.10.2012) SATRip
Сруб в ажуре (эфир от 04.11.2012) SATRip
Шаляпинская усадьба XXI века (эфир от 11.11.2012) SATRip
Атмосфера приключений в итальянской спальне (эфир от 18.11.2012) IPTVRip
Ночь нежна (эфир от 25.11.2012) IPTVRip
На столе дрова, на стене дрова (эфир от 02.12.2012) IPTVRip
Детская для малышей (эфир от 09.12.12) SATRip
Деревянный дом с камином (эфир от 16.12.12) SATRip
Сладкая спальня для молодоженов (эфир от 23.12.12) SATRip
Добавлено 12.01.2013
Новогодняя «малая гостиная» (эфир от 31.12.2012) SATRip
-Скриншоты:
       
       

Скриншоты, описание и MediaInfo отдельных серий:

Нарезка. Казан & Мангал со Сталиком Ханкишиевым, Выпуск 4 (2009-2011) SATRip

Он явился к нам не откуда-нибудь, а прямо из всемирной Сети! Удивлены? Но это правда так! Оказывается, вот уже более шести лет он, что называется, «гуру» российского кулинарного Интернета. Это сейчас он звезда и легенда самых посещаемых сайтов и форумов, а когда-то давно он был обычным продавцом из Ферганы – тихого, патриархального городка поблизости с Ташкентом. Восточная кровь, любовь к национальной культуре, как говорится, не отходя от кухни, сделали простого дилетанта в мастера! Практически каждое воскресенье на телеканале НТВ Сталик Ханкишиев рассказывает о том, как приготовить вкусное и полезное блюдо!
В выпуске:
01.Айва фаршированная по-кокандски
02.Узбекская шурпа
03.Плов с тыквой
04.Шавля с Хасыпом - узбекская каша с колбасой
05.Бараньи почки по-уйгурски
06.Шашлык из печени
07.Ферганский плов

MediaInfo

Общее
Полное имя : E:\Films\Дачный ответ - С января по апрель 2012\01. Dachnii.otvet.Kazan.Manga.V.04.2011.XviD.SATRip.avi
Формат : AVI
Формат/Информация : Audio Video Interleave
Размер файла : 650 Мбайт
Продолжительность : 49 м.
Общий поток : 1841 Кбит/сек
Программа кодирования : VirtualDubMod 1.5.10.3 || (build 2550/release)
Библиотека кодирования : VirtualDubMod build 2550/release
Видео
Идентификатор : 0
Формат : MPEG-4 Visual
Профиль формата : Advanced [email protected]
Параметр BVOP формата : 1
Параметр QPel формата : Нет
Параметр GMC формата : Без точки перехода
Параметр матрицы формата : Default (H.263)
Идентификатор кодека : XVID
Идентификатор кодека/Подсказка : XviD
Продолжительность : 49 м.
Битрейт : 1735 Кбит/сек
Ширина : 640 пикселей
Высота : 480 пикселей
Соотношение сторон : 4:3
Частота кадров : 25,000 кадров/сек
Цветовое пространство : YUV
Субдискретизация насыщенности : 4:2:0
Битовая глубина : 8 бит
Тип развёртки : Прогрессивная
Метод сжатия : С потерями
Бит/(Пиксели*Кадры) : 0.226
Размер потока : 612 Мбайт (94%)
Библиотека кодирования : XviD 64
Аудио
Идентификатор : 1
Формат : MPEG Audio
Версия формата : Version 1
Профиль формата : Layer 3
Идентификатор кодека : 55
Идентификатор кодека/Подсказка : MP3
Продолжительность : 49 м.
Вид битрейта : Постоянный
Битрейт : 96,0 Кбит/сек
Каналы : 1 канал
Частота : 48,0 КГц
Метод сжатия : С потерями
Размер потока : 33,9 Мбайт (5%)
Выравнивание : Соединение по промежуткам
Продолжительность промежутка : 40 мс. (1,00 видеокадр)
Время предзагрузки промежутка : 504 мс.
Библиотека кодирования : LAME3.98r
Настройки программы : -m m -V 4 -q 2 -lowpass 20.5 -b 96
       

Смешать, но не взбалтывать (эфир от 29.01.2012) SATRip

Семья Перевозных сделала практически невозможное – за полтора года своими силами превратила недостроенный сруб в комфортный загородный дом. Процесс отнял много сил, возможности и средства исчерпались, работы остался непочатый край – и мы решили дать хозяевам немного передохнуть. Новый интерьер самой просторной комнаты площадью 50 кв. м получится интернациональным и многоликим. Он объединит в себе кухню, столовую, гостиную и кофейную зоны. Причем кухонная мебель будет белая английская, плитка испанская, окна французские, стулья немецкие, буфет – старинный русский, из Омска. А над столом из антикварного тика появится «гирлянда» из суперсовременных светильников авангардного дизайнера Тома Диксона. И все это в окружении статуй Венеры Милосской! Автор взрывного коктейля – дизайнер Мария Ватолина

MediaInfo

Общее
Полное имя : E:\Films\Дачный ответ - С января по апрель 2012\02. Dachnii.otvet.29.01.12.XviD.SATRip.avi
Формат : AVI
Формат/Информация : Audio Video Interleave
Размер файла : 585 Мбайт
Продолжительность : 49 м.
Общий поток : 1637 Кбит/сек
Программа кодирования : VirtualDubMod 1.5.10.3 (build 2550/release)
Библиотека кодирования : VirtualDubMod build 2550/release
Видео
Идентификатор : 0
Формат : MPEG-4 Visual
Профиль формата : Advanced [email protected]
Параметр BVOP формата : 1
Параметр QPel формата : Нет
Параметр GMC формата : Без точки перехода
Параметр матрицы формата : Default (H.263)
Идентификатор кодека : XVID
Идентификатор кодека/Подсказка : XviD
Продолжительность : 49 м.
Битрейт : 1500 Кбит/сек
Ширина : 640 пикселей
Высота : 480 пикселей
Соотношение сторон : 4:3
Частота кадров : 25,000 кадров/сек
Цветовое пространство : YUV
Субдискретизация насыщенности : 4:2:0
Битовая глубина : 8 бит
Тип развёртки : Прогрессивная
Метод сжатия : С потерями
Бит/(Пиксели*Кадры) : 0.195
Размер потока : 536 Мбайт (92%)
Библиотека кодирования : XviD 64
Аудио
Идентификатор : 1
Формат : MPEG Audio
Версия формата : Version 1
Профиль формата : Layer 3
Режим : Joint stereo
Расширение режима : MS Stereo
Идентификатор кодека : 55
Идентификатор кодека/Подсказка : MP3
Продолжительность : 49 м.
Вид битрейта : Постоянный
Битрейт : 128 Кбит/сек
Каналы : 2 канала
Частота : 48,0 КГц
Метод сжатия : С потерями
Размер потока : 45,7 Мбайт (8%)
Выравнивание : Соединение по промежуткам
Продолжительность промежутка : 40 мс. (1,00 видеокадр)
Время предзагрузки промежутка : 504 мс.
Библиотека кодирования : LAME3.98r
Настройки программы : -m j -V 4 -q 2 -lowpass 17 -b 128
       

СГостиная с перфорацией (эфир от 05.02.2012) SATRip

Основным мотивом обновленного пространства кухни, столовой и гостиной в необычном энергосберегающем доме стали отверстия - большие и маленькие,
декоративные и функциональные, в стеллажах и перегородках. А основным материалом для изготовления мебели оказалась фанера, что отлично соответствует идее эко-интерьера.

MediaInfo

Общее
Полное имя : E:\Films\Дачный ответ - С января по апрель 2012\03. Dachnii.otvet.05.02.12.XviD.SATRip.avi
Формат : AVI
Формат/Информация : Audio Video Interleave
Размер файла : 579 Мбайт
Продолжительность : 50 м.
Общий поток : 1605 Кбит/сек
Программа кодирования : VirtualDubMod 1.5.10.3 (build 2550/release)
Библиотека кодирования : VirtualDubMod build 2550/release
Видео
Идентификатор : 0
Формат : MPEG-4 Visual
Профиль формата : Advanced [email protected]
Параметр BVOP формата : 1
Параметр QPel формата : Нет
Параметр GMC формата : Без точки перехода
Параметр матрицы формата : Default (H.263)
Идентификатор кодека : XVID
Идентификатор кодека/Подсказка : XviD
Продолжительность : 50 м.
Битрейт : 1499 Кбит/сек
Ширина : 640 пикселей
Высота : 480 пикселей
Соотношение сторон : 4:3
Частота кадров : 25,000 кадров/сек
Цветовое пространство : YUV
Субдискретизация насыщенности : 4:2:0
Битовая глубина : 8 бит
Тип развёртки : Прогрессивная
Метод сжатия : С потерями
Бит/(Пиксели*Кадры) : 0.195
Размер потока : 541 Мбайт (93%)
Библиотека кодирования : XviD 64
Аудио
Идентификатор : 1
Формат : MPEG Audio
Версия формата : Version 1
Профиль формата : Layer 3
Идентификатор кодека : 55
Идентификатор кодека/Подсказка : MP3
Продолжительность : 50 м.
Вид битрейта : Постоянный
Битрейт : 96,0 Кбит/сек
Каналы : 1 канал
Частота : 48,0 КГц
Метод сжатия : С потерями
Размер потока : 34,6 Мбайт (6%)
Выравнивание : Соединение по промежуткам
Продолжительность промежутка : 40 мс. (1,00 видеокадр)
Время предзагрузки промежутка : 504 мс.
Библиотека кодирования : LAME3.98r
Настройки программы : -m m -V 4 -q 2 -lowpass 20.5 -b 96
       

Баня под колпаком-1 (эфир от 12.02.2012) SATRip

По проекту архитектора Максима Лукьянова и дизайнера Ольги Пьяновой мы построили уникальный банный комплекс с сауной и турецким хаммамом. Сооружение необычной бионической формы возвели исключительно из природных материалов: стены собрали из кедрового бруса, а крышу в виде гигантского колпака накрыли снопами камыша!

MediaInfo

Общее
Полное имя : E:\Films\Дачный ответ - С января по апрель 2012\04. Dachnii.otvet.12.02.12.XviD.SATRip.avi
Формат : AVI
Формат/Информация : Audio Video Interleave
Размер файла : 587 Мбайт
Продолжительность : 51 м.
Общий поток : 1605 Кбит/сек
Программа кодирования : VirtualDubMod 1.5.10.3 | (build 2550/release)
Библиотека кодирования : VirtualDubMod build 2550/release
Видео
Идентификатор : 0
Формат : MPEG-4 Visual
Профиль формата : Advanced [email protected]
Параметр BVOP формата : 1
Параметр QPel формата : Нет
Параметр GMC формата : Без точки перехода
Параметр матрицы формата : Default (H.263)
Идентификатор кодека : XVID
Идентификатор кодека/Подсказка : XviD
Продолжительность : 51 м.
Битрейт : 1500 Кбит/сек
Ширина : 640 пикселей
Высота : 480 пикселей
Соотношение сторон : 4:3
Частота кадров : 25,000 кадров/сек
Цветовое пространство : YUV
Субдискретизация насыщенности : 4:2:0
Битовая глубина : 8 бит
Тип развёртки : Прогрессивная
Метод сжатия : С потерями
Бит/(Пиксели*Кадры) : 0.195
Размер потока : 549 Мбайт (93%)
Библиотека кодирования : XviD 64
Аудио
Идентификатор : 1
Формат : MPEG Audio
Версия формата : Version 1
Профиль формата : Layer 3
Идентификатор кодека : 55
Идентификатор кодека/Подсказка : MP3
Продолжительность : 51 м.
Вид битрейта : Постоянный
Битрейт : 96,0 Кбит/сек
Каналы : 1 канал
Частота : 48,0 КГц
Метод сжатия : С потерями
Размер потока : 35,1 Мбайт (6%)
Выравнивание : Соединение по промежуткам
Продолжительность промежутка : 40 мс. (1,00 видеокадр)
Время предзагрузки промежутка : 504 мс.
Библиотека кодирования : LAME3.98r
Настройки программы : -m m -V 4 -q 2 -lowpass 20.5 -b 96
       

Баня под колпаком-2 (эфир от 19.02.2012) SATRip

По проекту архитектора Максима Лукьянова и дизайнера Ольги Пьяновой мы построили уникальный банный комплекс с сауной и турецким хаммамом. Сооружение необычной бионической формы возвели исключительно из природных материалов: стены собрали из кедрового бруса, а крышу в виде гигантского колпака накрыли снопами камыша!

MediaInfo

Общее
Полное имя : E:\Films\Дачный ответ - С января по апрель 2012\05. Dachnii.otvet.19.02.12.XviD.SATRip.avi
Формат : AVI
Формат/Информация : Audio Video Interleave
Размер файла : 576 Мбайт
Продолжительность : 50 м.
Общий поток : 1605 Кбит/сек
Программа кодирования : VirtualDubMod 1.5.10.3 | (build 2550/release)
Библиотека кодирования : VirtualDubMod build 2550/release
Видео
Идентификатор : 0
Формат : MPEG-4 Visual
Профиль формата : Advanced [email protected]
Параметр BVOP формата : 1
Параметр QPel формата : Нет
Параметр GMC формата : Без точки перехода
Параметр матрицы формата : Default (H.263)
Идентификатор кодека : XVID
Идентификатор кодека/Подсказка : XviD
Продолжительность : 50 м.
Битрейт : 1500 Кбит/сек
Ширина : 640 пикселей
Высота : 480 пикселей
Соотношение сторон : 4:3
Частота кадров : 25,000 кадров/сек
Цветовое пространство : YUV
Субдискретизация насыщенности : 4:2:0
Битовая глубина : 8 бит
Тип развёртки : Прогрессивная
Метод сжатия : С потерями
Бит/(Пиксели*Кадры) : 0.195
Размер потока : 539 Мбайт (93%)
Библиотека кодирования : XviD 64
Аудио
Идентификатор : 1
Формат : MPEG Audio
Версия формата : Version 1
Профиль формата : Layer 3
Идентификатор кодека : 55
Идентификатор кодека/Подсказка : MP3
Продолжительность : 50 м.
Вид битрейта : Постоянный
Битрейт : 96,0 Кбит/сек
Каналы : 1 канал
Частота : 48,0 КГц
Метод сжатия : С потерями
Размер потока : 34,5 Мбайт (6%)
Выравнивание : Соединение по промежуткам
Продолжительность промежутка : 40 мс. (1,00 видеокадр)
Время предзагрузки промежутка : 504 мс.
Библиотека кодирования : LAME3.98r
Настройки программы : -m m -V 4 -q 2 -lowpass 20.5 -b 96
       

Малая Голландия (эфир от 26.02.2012) SATRip

По проекту Вероники Андриховой мы сделали из двух небольших смежных комнат и одной старой негреющей печки гостиную-кинозал. Главным декоративным акцентом стал пол, выложенный черно-белой плиткой в лучших традициях голландских интерьеров. Ну, а центральное место в новом интерьере занял прозрачный камин.

MediaInfo

Общее
Полное имя : E:\Films\Дачный ответ - С января по апрель 2012\06. Dachnii.otvet.26.02.12.XviD.SATRip.avi
Формат : AVI
Формат/Информация : Audio Video Interleave
Размер файла : 608 Мбайт
Продолжительность : 48 м.
Общий поток : 1737 Кбит/сек
Программа кодирования : VirtualDubMod 1.5.10.3 | (build 2550/release)
Библиотека кодирования : VirtualDubMod build 2550/release
Видео
Идентификатор : 0
Формат : MPEG-4 Visual
Профиль формата : Advanced [email protected]
Параметр BVOP формата : 1
Параметр QPel формата : Нет
Параметр GMC формата : Без точки перехода
Параметр матрицы формата : Default (H.263)
Идентификатор кодека : XVID
Идентификатор кодека/Подсказка : XviD
Продолжительность : 48 м.
Битрейт : 1599 Кбит/сек
Ширина : 640 пикселей
Высота : 480 пикселей
Соотношение сторон : 4:3
Частота кадров : 25,000 кадров/сек
Цветовое пространство : YUV
Субдискретизация насыщенности : 4:2:0
Битовая глубина : 8 бит
Тип развёртки : Прогрессивная
Метод сжатия : С потерями
Бит/(Пиксели*Кадры) : 0.208
Размер потока : 560 Мбайт (92%)
Библиотека кодирования : XviD 64
Аудио
Идентификатор : 1
Формат : MPEG Audio
Версия формата : Version 1
Профиль формата : Layer 3
Режим : Joint stereo
Расширение режима : MS Stereo
Идентификатор кодека : 55
Идентификатор кодека/Подсказка : MP3
Продолжительность : 48 м.
Вид битрейта : Постоянный
Битрейт : 128 Кбит/сек
Каналы : 2 канала
Частота : 48,0 КГц
Метод сжатия : С потерями
Размер потока : 44,8 Мбайт (7%)
Выравнивание : Соединение по промежуткам
Продолжительность промежутка : 40 мс. (1,00 видеокадр)
Время предзагрузки промежутка : 504 мс.
Библиотека кодирования : LAME3.98r
Настройки программы : -m j -V 4 -q 2 -lowpass 17 -b 128
       

Мансарда для будущего президента (04.03.2012) SATRip

Огромный заброшенный чердак превратился в новую комнату для шестнадцатилетнего Павла, который в будущем мечтает стать президентом. Вместе с архитектором Александрой Федоровой мы cоздали современный мужской интерьер с элементами лофта. Пространство поделили на два уровня: наверху появился кабинет, а внизу - просторная гостиная для репетиций и общения, широкое спальное место и даже гардеробная.

MediaInfo

Общее
Полное имя : E:\Films\Дачный ответ - С января по апрель 2012\07. Dachnii.otvet.04.03.12.XviD.SATRip.avi
Формат : AVI
Формат/Информация : Audio Video Interleave
Размер файла : 586 Мбайт
Продолжительность : 50 м.
Общий поток : 1637 Кбит/сек
Программа кодирования : VirtualDubMod 1.5.10.3 | (build 2550/release)
Библиотека кодирования : VirtualDubMod build 2550/release
Видео
Идентификатор : 0
Формат : MPEG-4 Visual
Профиль формата : Advanced [email protected]
Параметр BVOP формата : 1
Параметр QPel формата : Нет
Параметр GMC формата : Без точки перехода
Параметр матрицы формата : Default (H.263)
Идентификатор кодека : XVID
Идентификатор кодека/Подсказка : XviD
Продолжительность : 50 м.
Битрейт : 1499 Кбит/сек
Ширина : 640 пикселей
Высота : 480 пикселей
Соотношение сторон : 4:3
Частота кадров : 25,000 кадров/сек
Цветовое пространство : YUV
Субдискретизация насыщенности : 4:2:0
Битовая глубина : 8 бит
Тип развёртки : Прогрессивная
Метод сжатия : С потерями
Бит/(Пиксели*Кадры) : 0.195
Размер потока : 537 Мбайт (92%)
Библиотека кодирования : XviD 64
Аудио
Идентификатор : 1
Формат : MPEG Audio
Версия формата : Version 1
Профиль формата : Layer 3
Режим : Joint stereo
Расширение режима : MS Stereo
Идентификатор кодека : 55
Идентификатор кодека/Подсказка : MP3
Продолжительность : 50 м.
Вид битрейта : Постоянный
Битрейт : 128 Кбит/сек
Каналы : 2 канала
Частота : 48,0 КГц
Метод сжатия : С потерями
Размер потока : 45,8 Мбайт (8%)
Выравнивание : Соединение по промежуткам
Продолжительность промежутка : 40 мс. (1,00 видеокадр)
Время предзагрузки промежутка : 504 мс.
Библиотека кодирования : LAME3.98r
Настройки программы : -m j -V 4 -q 2 -lowpass 17 -b 128
       

Поп-Гостиная и Арт-Кухня (эфир от 18.03.12) SATRip

Члены семьи Ивлевых – яркие, жизнерадостные люди. Мы помогли им превратить унылую гостиную и узенькую кухню в необычное пространство, где есть свет, простор и насыщенные позитивные цвета. Теперь эта комната, благодаря переделке в стиле поп-арт, полностью совпадает с характерами и настроением хозяев.

MediaInfo

Общее
Полное имя : E:\Films\Дачный ответ - С января по апрель 2012\08. Dachnii.otvet.18.03.12.XviD.SATRip.avi
Формат : AVI
Формат/Информация : Audio Video Interleave
Размер файла : 570 Мбайт
Продолжительность : 49 м.
Общий поток : 1605 Кбит/сек
Программа кодирования : VirtualDubMod 1.5.10.3 | (build 2550/release)
Библиотека кодирования : VirtualDubMod build 2550/release
Видео
Идентификатор : 0
Формат : MPEG-4 Visual
Профиль формата : Advanced [email protected]
Параметр BVOP формата : 1
Параметр QPel формата : Нет
Параметр GMC формата : Без точки перехода
Параметр матрицы формата : Default (H.263)
Идентификатор кодека : XVID
Идентификатор кодека/Подсказка : XviD
Продолжительность : 49 м.
Битрейт : 1499 Кбит/сек
Ширина : 640 пикселей
Высота : 480 пикселей
Соотношение сторон : 4:3
Частота кадров : 25,000 кадров/сек
Цветовое пространство : YUV
Субдискретизация насыщенности : 4:2:0
Битовая глубина : 8 бит
Тип развёртки : Прогрессивная
Метод сжатия : С потерями
Бит/(Пиксели*Кадры) : 0.195
Размер потока : 532 Мбайт (93%)
Библиотека кодирования : XviD 64
Аудио
Идентификатор : 1
Формат : MPEG Audio
Версия формата : Version 1
Профиль формата : Layer 3
Идентификатор кодека : 55
Идентификатор кодека/Подсказка : MP3
Продолжительность : 49 м.
Вид битрейта : Постоянный
Битрейт : 96,0 Кбит/сек
Каналы : 1 канал
Частота : 48,0 КГц
Метод сжатия : С потерями
Размер потока : 34,1 Мбайт (6%)
Выравнивание : Соединение по промежуткам
Продолжительность промежутка : 40 мс. (1,00 видеокадр)
Время предзагрузки промежутка : 504 мс.
Библиотека кодирования : LAME3.98r
Настройки программы : -m m -V 4 -q 2 -lowpass 20.5 -b 96
       

Классика жанра (эфир от 25.03.12) SATRip

В интерьере гостиной дизайнеры Варвара Зеленецкая и Дмитрий Макеров собрали характерные черты всей европейской классики: кессонный потолок, деревянную отделку стен, французские окна, диваны-честерфильды. Сочетание традиционных приемов всегда гарантирует отменный результат.

MediaInfo

Общее
Полное имя : E:\Films\Дачный ответ - С января по апрель 2012\09. Dachnii.otvet.25.03.12.XviD.SATRip.avi
Формат : AVI
Формат/Информация : Audio Video Interleave
Размер файла : 548 Мбайт
Продолжительность : 47 м.
Общий поток : 1605 Кбит/сек
Программа кодирования : VirtualDubMod 1.5.10.3 | (build 2550/release)
Библиотека кодирования : VirtualDubMod build 2550/release
Видео
Идентификатор : 0
Формат : MPEG-4 Visual
Профиль формата : Advanced [email protected]
Параметр BVOP формата : 1
Параметр QPel формата : Нет
Параметр GMC формата : Без точки перехода
Параметр матрицы формата : Default (H.263)
Идентификатор кодека : XVID
Идентификатор кодека/Подсказка : XviD
Продолжительность : 47 м.
Битрейт : 1499 Кбит/сек
Ширина : 640 пикселей
Высота : 480 пикселей
Соотношение сторон : 4:3
Частота кадров : 25,000 кадров/сек
Цветовое пространство : YUV
Субдискретизация насыщенности : 4:2:0
Битовая глубина : 8 бит
Тип развёртки : Прогрессивная
Метод сжатия : С потерями
Бит/(Пиксели*Кадры) : 0.195
Размер потока : 512 Мбайт (93%)
Библиотека кодирования : XviD 64
Аудио
Идентификатор : 1
Формат : MPEG Audio
Версия формата : Version 1
Профиль формата : Layer 3
Режим : Joint stereo
Расширение режима : MS Stereo
Идентификатор кодека : 55
Идентификатор кодека/Подсказка : MP3
Продолжительность : 47 м.
Вид битрейта : Постоянный
Битрейт : 96,0 Кбит/сек
Каналы : 2 канала
Частота : 32,0 КГц
Метод сжатия : С потерями
Размер потока : 32,8 Мбайт (6%)
Выравнивание : Соединение по промежуткам
Продолжительность промежутка : 40 мс. (1,00 видеокадр)
Время предзагрузки промежутка : 504 мс.
Библиотека кодирования : LAME3.98r
Настройки программы : -m j -V 4 -q 2 -lowpass 15.1 -b 96
       

Орхидеи в тумане (эфир от 01.04.12) SATRip

Дизайнеры Наталья Каменева и Анастасия Гаврилова превратили бывшую баню в уголок зеленой Амазонии – в гостиную с зарослями орхидей и ароматом тропического леса. Ощущение экзотики усиливает отделка стен пробкой и тиком, а с остальным домом гостиную объединяет широкая раздвижная дверь-купе.

MediaInfo

Общее
Полное имя : E:\Films\Дачный ответ - С января по апрель 2012\10. Dachnii.otvet.01.04.12.XviD.SATRip.avi
Формат : AVI
Формат/Информация : Audio Video Interleave
Размер файла : 566 Мбайт
Продолжительность : 49 м.
Общий поток : 1605 Кбит/сек
Программа кодирования : VirtualDubMod 1.5.10.3 | (build 2550/release)
Библиотека кодирования : VirtualDubMod build 2550/release
Видео
Идентификатор : 0
Формат : MPEG-4 Visual
Профиль формата : Advanced [email protected]
Параметр BVOP формата : 1
Параметр QPel формата : Нет
Параметр GMC формата : Без точки перехода
Параметр матрицы формата : Default (H.263)
Идентификатор кодека : XVID
Идентификатор кодека/Подсказка : XviD
Продолжительность : 49 м.
Битрейт : 1499 Кбит/сек
Ширина : 640 пикселей
Высота : 480 пикселей
Соотношение сторон : 4:3
Частота кадров : 25,000 кадров/сек
Цветовое пространство : YUV
Субдискретизация насыщенности : 4:2:0
Битовая глубина : 8 бит
Тип развёртки : Прогрессивная
Метод сжатия : С потерями
Бит/(Пиксели*Кадры) : 0.195
Размер потока : 529 Мбайт (93%)
Библиотека кодирования : XviD 64
Аудио
Идентификатор : 1
Формат : MPEG Audio
Версия формата : Version 1
Профиль формата : Layer 3
Режим : Joint stereo
Расширение режима : MS Stereo
Идентификатор кодека : 55
Идентификатор кодека/Подсказка : MP3
Продолжительность : 49 м.
Вид битрейта : Постоянный
Битрейт : 96,0 Кбит/сек
Каналы : 2 канала
Частота : 32,0 КГц
Метод сжатия : С потерями
Размер потока : 33,9 Мбайт (6%)
Выравнивание : Соединение по промежуткам
Продолжительность промежутка : 40 мс. (1,00 видеокадр)
Время предзагрузки промежутка : 504 мс.
Библиотека кодирования : LAME3.98r
Настройки программы : -m j -V 4 -q 2 -lowpass 15.1 -b 96
       

Реконструкция раннего Средневековья (эфир от 08.04.12) SATRip

В семье Ковальковых всерьез увлечены исторической реконструкцией и особенно любят раннее Средневековье – эпоху завоеваний викингов и рыцарских подвигов. Поэтому в переделке кухни-гостиной Анна Ладыгина использует характерные для того времени образы и мотивы: кухонный фартук украсит голова горгульи и копии исторических гравюр, потолок – характерные для культуры викингов узоры; на стенах появится имитация грубой каменной кладки, а в гостиной зоне – круглый деревянный стол и самодельный шкаф из дубовой бочки. Но в результате интерьер получится самым что ни на есть современным!

MediaInfo

Общее
Полное имя : E:\Films\Дачный ответ - С января по апрель 2012\11. Dachnii.otvet.08.04.12.XviD.SATRip.avi
Формат : AVI
Формат/Информация : Audio Video Interleave
Размер файла : 578 Мбайт
Продолжительность : 50 м.
Общий поток : 1605 Кбит/сек
Программа кодирования : VirtualDubMod 1.5.10.3 | (build 2550/release)
Библиотека кодирования : VirtualDubMod build 2550/release
Видео
Идентификатор : 0
Формат : MPEG-4 Visual
Профиль формата : Advanced [email protected]
Параметр BVOP формата : 1
Параметр QPel формата : Нет
Параметр GMC формата : Без точки перехода
Параметр матрицы формата : Default (H.263)
Идентификатор кодека : XVID
Идентификатор кодека/Подсказка : XviD
Продолжительность : 50 м.
Битрейт : 1499 Кбит/сек
Ширина : 640 пикселей
Высота : 480 пикселей
Соотношение сторон : 4:3
Частота кадров : 25,000 кадров/сек
Цветовое пространство : YUV
Субдискретизация насыщенности : 4:2:0
Битовая глубина : 8 бит
Тип развёртки : Прогрессивная
Метод сжатия : С потерями
Бит/(Пиксели*Кадры) : 0.195
Размер потока : 540 Мбайт (93%)
Библиотека кодирования : XviD 64
Аудио
Идентификатор : 1
Формат : MPEG Audio
Версия формата : Version 1
Профиль формата : Layer 3
Режим : Joint stereo
Расширение режима : MS Stereo
Идентификатор кодека : 55
Идентификатор кодека/Подсказка : MP3
Продолжительность : 50 м.
Вид битрейта : Постоянный
Битрейт : 96,0 Кбит/сек
Каналы : 2 канала
Частота : 32,0 КГц
Метод сжатия : С потерями
Размер потока : 34,5 Мбайт (6%)
Выравнивание : Соединение по промежуткам
Продолжительность промежутка : 40 мс. (1,00 видеокадр)
Время предзагрузки промежутка : 504 мс.
Библиотека кодирования : LAME3.98r
Настройки программы : -m j -V 4 -q 2 -lowpass 15.1 -b 96
       

Подарок для капитана (эфир от 15.04.12) SATRip

«Дачный ответ» решил сделать подарок пенсионеру-яхтсмену. К 75-летию героя команда программы переделает кухню-гостиную в его дачном доме. По проекту Антона и Марины Фруктовых мы соединим классику и хай-тек: мебель с резными ножками и лестницу из стекла, ткани с вензелями и потолок из нержавеющей стали. А украсят интерьер весла и гербы известных путешественников.

MediaInfo

Общее
Полное имя : E:\Films\Дачный ответ - С января по апрель 2012\12. Dachnii.otvet.15.04.12.XviD.SATRip.avi
Формат : AVI
Формат/Информация : Audio Video Interleave
Размер файла : 573 Мбайт
Продолжительность : 49 м.
Общий поток : 1605 Кбит/сек
Программа кодирования : VirtualDubMod 1.5.10.3 | (build 2550/release)
Библиотека кодирования : VirtualDubMod build 2550/release
Видео
Идентификатор : 0
Формат : MPEG-4 Visual
Профиль формата : Advanced [email protected]
Параметр BVOP формата : 1
Параметр QPel формата : Нет
Параметр GMC формата : Без точки перехода
Параметр матрицы формата : Default (H.263)
Идентификатор кодека : XVID
Идентификатор кодека/Подсказка : XviD
Продолжительность : 49 м.
Битрейт : 1499 Кбит/сек
Ширина : 640 пикселей
Высота : 480 пикселей
Соотношение сторон : 4:3
Частота кадров : 25,000 кадров/сек
Цветовое пространство : YUV
Субдискретизация насыщенности : 4:2:0
Битовая глубина : 8 бит
Тип развёртки : Прогрессивная
Метод сжатия : С потерями
Бит/(Пиксели*Кадры) : 0.195
Размер потока : 535 Мбайт (93%)
Библиотека кодирования : XviD 64
Аудио
Идентификатор : 1
Формат : MPEG Audio
Версия формата : Version 1
Профиль формата : Layer 3
Режим : Joint stereo
Расширение режима : MS Stereo
Идентификатор кодека : 55
Идентификатор кодека/Подсказка : MP3
Продолжительность : 49 м.
Вид битрейта : Постоянный
Битрейт : 96,0 Кбит/сек
Каналы : 2 канала
Частота : 32,0 КГц
Метод сжатия : С потерями
Размер потока : 34,3 Мбайт (6%)
Выравнивание : Соединение по промежуткам
Продолжительность промежутка : 40 мс. (1,00 видеокадр)
Время предзагрузки промежутка : 504 мс.
Библиотека кодирования : LAME3.98r
Настройки программы : -m j -V 4 -q 2 -lowpass 15.1 -b 96
       

Стеллаж из лестницы, пламя из воды и пол из гальки (эфир от 22.04.12) SATRip

«Дачный ответ» вместе с архитектором Алексеем Николашиным переделала самое популярное место в доме – кухню-гостиную. Мы раздвинули границы комнаты – снесли ненужные стены. С помощью зеркал замаскировали двери и создали иллюзию большого пространства. Ограждение лестницы превратилось в стеллаж, пол украсили речной галькой, а из воды мы создали пламя в камине!

MediaInfo

Общее
Полное имя : E:\Films\Дачный ответ - С января по апрель 2012\13. Dachnii.otvet.22.04.12.XviD.SATRip.avi
Формат : AVI
Формат/Информация : Audio Video Interleave
Размер файла : 586 Мбайт
Продолжительность : 49 м.
Общий поток : 1654 Кбит/сек
Программа кодирования : VirtualDubMod 1.5.10.3 | (build 2550/release)
Библиотека кодирования : VirtualDubMod build 2550/release
Видео
Идентификатор : 0
Формат : MPEG-4 Visual
Профиль формата : Advanced [email protected]
Параметр BVOP формата : 1
Параметр QPel формата : Нет
Параметр GMC формата : Без точки перехода
Параметр матрицы формата : Default (H.263)
Идентификатор кодека : XVID
Идентификатор кодека/Подсказка : XviD
Продолжительность : 49 м.
Битрейт : 1549 Кбит/сек
Ширина : 640 пикселей
Высота : 480 пикселей
Соотношение сторон : 4:3
Частота кадров : 25,000 кадров/сек
Цветовое пространство : YUV
Субдискретизация насыщенности : 4:2:0
Битовая глубина : 8 бит
Тип развёртки : Прогрессивная
Метод сжатия : С потерями
Бит/(Пиксели*Кадры) : 0.202
Размер потока : 549 Мбайт (94%)
Библиотека кодирования : XviD 64
Аудио
Идентификатор : 1
Формат : MPEG Audio
Версия формата : Version 1
Профиль формата : Layer 3
Режим : Joint stereo
Расширение режима : MS Stereo
Идентификатор кодека : 55
Идентификатор кодека/Подсказка : MP3
Продолжительность : 49 м.
Вид битрейта : Постоянный
Битрейт : 96,0 Кбит/сек
Каналы : 2 канала
Частота : 32,0 КГц
Метод сжатия : С потерями
Размер потока : 34,0 Мбайт (6%)
Выравнивание : Соединение по промежуткам
Продолжительность промежутка : 40 мс. (1,00 видеокадр)
Время предзагрузки промежутка : 504 мс.
Библиотека кодирования : LAME3.98r
Настройки программы : -m j -V 4 -q 2 -lowpass 15.1 -b 96
       

Интердеревня (эфир от 30.04.2012) SATRip

Герои программы — оперный бас Большого театра Вадим Лынковский и его жена Екатерина — давно мечтали жить за городом, долго искали место и, наконец, нашли: тишина, целебный хвойный воздух и возможность репетировать в полный голос. Недостроенный дом они доделали сами, оставив заданную планировку. Но вот с гостиной у них не получалось. На помощь пришла команда «Дачного ответа», которая с легкостью обернула недостатки помещения в его достоинства.

MediaInfo

Общее
Полное имя : E:\Films\Дачный ответ - 2012 (Мегапак)\Dachnii.otvet.30.04.12.XviD.SATRip.avi
Формат : AVI
Формат/Информация : Audio Video Interleave
Размер файла : 607 Мбайт
Продолжительность : 49 м.
Общий поток : 1705 Кбит/сек
Программа кодирования : VirtualDubMod 1.5.10.3 |(build 2550/release)
Библиотека кодирования : VirtualDubMod build 2550/release
Видео
Идентификатор : 0
Формат : MPEG-4 Visual
Профиль формата : Advanced [email protected]
Параметр BVOP формата : 1
Параметр QPel формата : Нет
Параметр GMC формата : Без точки перехода
Параметр матрицы формата : Default (H.263)
Идентификатор кодека : XVID
Идентификатор кодека/Подсказка : XviD
Продолжительность : 49 м.
Битрейт : 1599 Кбит/сек
Ширина : 640 пикселей
Высота : 480 пикселей
Соотношение сторон : 4:3
Частота кадров : 25,000 кадров/сек
Цветовое пространство : YUV
Субдискретизация насыщенности : 4:2:0
Битовая глубина : 8 бит
Тип развёртки : Прогрессивная
Метод сжатия : С потерями
Бит/(Пиксели*Кадры) : 0.208
Размер потока : 569 Мбайт (94%)
Библиотека кодирования : XviD 64
Аудио
Идентификатор : 1
Формат : MPEG Audio
Версия формата : Version 1
Профиль формата : Layer 3
Режим : Joint stereo
Расширение режима : MS Stereo
Идентификатор кодека : 55
Идентификатор кодека/Подсказка : MP3
Продолжительность : 49 м.
Вид битрейта : Постоянный
Битрейт : 96,0 Кбит/сек
Каналы : 2 канала
Частота : 32,0 КГц
Метод сжатия : С потерями
Размер потока : 34,2 Мбайт (6%)
Выравнивание : Соединение по промежуткам
Продолжительность промежутка : 40 мс. (1,00 видеокадр)
Время предзагрузки промежутка : 504 мс.
Библиотека кодирования : LAME3.98r
Настройки программы : -m j -V 4 -q 2 -lowpass 15.1 -b 96
       

Кухня-столовая с полотен Кандинского (эфир от 13.05.2012) SATRip

В переделке кухни-столовой встретились 30-е и 80-е: идею такого необычного симбиоза дизайнерам Полине Зарубьян и Ольге Пуниной навеяли героини проекта, внучка и бабушка - участие в программе стало подарком к ее 80-летнему юбилею. Из 30-х годов мы позаимствовали цвета и формы с полотен Кандинского и Мондриана, из 80-х – геометрические узоры и люстру Келли Хоппен.

MediaInfo

Общее
Полное имя : E:\Films\Дачный ответ - 2012 (Мегапак)\Dachnii.otvet.13.05.12.XviD.SATRip.avi
Формат : AVI
Формат/Информация : Audio Video Interleave
Размер файла : 568 Мбайт
Продолжительность : 49 м.
Общий поток : 1605 Кбит/сек
Программа кодирования : VirtualDubMod 1.5.10.3 | (build 2550/release)
Библиотека кодирования : VirtualDubMod build 2550/release
Видео
Идентификатор : 0
Формат : MPEG-4 Visual
Профиль формата : Advanced [email protected]
Параметр BVOP формата : 1
Параметр QPel формата : Нет
Параметр GMC формата : Без точки перехода
Параметр матрицы формата : Default (H.263)
Идентификатор кодека : XVID
Идентификатор кодека/Подсказка : XviD
Продолжительность : 49 м.
Битрейт : 1499 Кбит/сек
Ширина : 640 пикселей
Высота : 480 пикселей
Соотношение сторон : 4:3
Частота кадров : 25,000 кадров/сек
Цветовое пространство : YUV
Субдискретизация насыщенности : 4:2:0
Битовая глубина : 8 бит
Тип развёртки : Прогрессивная
Метод сжатия : С потерями
Бит/(Пиксели*Кадры) : 0.195
Размер потока : 530 Мбайт (93%)
Библиотека кодирования : XviD 64
Аудио
Идентификатор : 1
Формат : MPEG Audio
Версия формата : Version 1
Профиль формата : Layer 3
Режим : Joint stereo
Расширение режима : MS Stereo
Идентификатор кодека : 55
Идентификатор кодека/Подсказка : MP3
Продолжительность : 49 м.
Вид битрейта : Постоянный
Битрейт : 96,0 Кбит/сек
Каналы : 2 канала
Частота : 32,0 КГц
Метод сжатия : С потерями
Размер потока : 34,0 Мбайт (6%)
Выравнивание : Соединение по промежуткам
Продолжительность промежутка : 40 мс. (1,00 видеокадр)
Время предзагрузки промежутка : 504 мс.
Библиотека кодирования : LAME3.98r
Настройки программы : -m j -V 4 -q 2 -lowpass 15.1 -b 96
       

Петухи и маки (эфир от 20.05.2012) SATRip

Особенности этой кухни вдохновили дизайнера Катрину Ершову на создание нового стиля - Ивановского Прованса. А еще - на поиски нового места для лестницы. Ведь раньше нужно было очень постараться, чтобы, зайдя на кухню героев, не удариться головой о конструкцию, которая занимала половину комнаты. Зато теперь и лестница на месте, и на кухне нашлось место для полноценной обеденной зоны.

MediaInfo

Общее
Полное имя : E:\Films\Дачный ответ - 2012 (Мегапак)\16. Dachnii.otvet.20.05.12.XviD.SATRip.avi
Формат : AVI
Формат/Информация : Audio Video Interleave
Размер файла : 581 Мбайт
Продолжительность : 49 м.
Общий поток : 1655 Кбит/сек
Программа кодирования : VirtualDubMod 1.5.10.3 | (build 2550/release)
Библиотека кодирования : VirtualDubMod build 2550/release
Видео
Идентификатор : 0
Формат : MPEG-4 Visual
Профиль формата : Advanced [email protected]
Параметр BVOP формата : 1
Параметр QPel формата : Нет
Параметр GMC формата : Без точки перехода
Параметр матрицы формата : Default (H.263)
Идентификатор кодека : XVID
Идентификатор кодека/Подсказка : XviD
Продолжительность : 49 м.
Битрейт : 1549 Кбит/сек
Ширина : 640 пикселей
Высота : 480 пикселей
Соотношение сторон : 4:3
Частота кадров : 25,000 кадров/сек
Цветовое пространство : YUV
Субдискретизация насыщенности : 4:2:0
Битовая глубина : 8 бит
Тип развёртки : Прогрессивная
Метод сжатия : С потерями
Бит/(Пиксели*Кадры) : 0.202
Размер потока : 544 Мбайт (94%)
Библиотека кодирования : XviD 64
Аудио
Идентификатор : 1
Формат : MPEG Audio
Версия формата : Version 1
Профиль формата : Layer 3
Режим : Joint stereo
Расширение режима : MS Stereo
Идентификатор кодека : 55
Идентификатор кодека/Подсказка : MP3
Продолжительность : 49 м.
Вид битрейта : Постоянный
Битрейт : 96,0 Кбит/сек
Каналы : 2 канала
Частота : 32,0 КГц
Метод сжатия : С потерями
Размер потока : 33,7 Мбайт (6%)
Выравнивание : Соединение по промежуткам
Продолжительность промежутка : 40 мс. (1,00 видеокадр)
Время предзагрузки промежутка : 504 мс.
Библиотека кодирования : LAME3.98r
Настройки программы : -m j -V 4 -q 2 -lowpass 15.1 -b 96
       

«Шотландка» и рога (эфир от 27.05.2012) SATRip

В этом выпуске команда «Дачного ответа» состаривает кирпич, устанавливает панорамные окна, ломает проемы и … стереотипы. В гостиной семьи Морозовых-Титоровых под руководством Анастасии Панибратовой мы выложили потолок паркетом, вместо стены соорудили сквозной винный шкаф. А еще в самой неожиданной роли в нашей переделке выступила ткань «шотландка» и … оленьи рога.

MediaInfo

Общее
Полное имя : E:\Films\Дачный ответ - 2012 (Мегапак)\17. Dachnii.otvet.27.05.12.XviD.SATRip.avi
Формат : AVI
Формат/Информация : Audio Video Interleave
Размер файла : 594 Мбайт
Продолжительность : 50 м.
Общий поток : 1655 Кбит/сек
Программа кодирования : VirtualDubMod 1.5.10.3 |(build 2550/release)
Библиотека кодирования : VirtualDubMod build 2550/release
Видео
Идентификатор : 0
Формат : MPEG-4 Visual
Профиль формата : Advanced [email protected]
Параметр BVOP формата : 1
Параметр QPel формата : Нет
Параметр GMC формата : Без точки перехода
Параметр матрицы формата : Default (H.263)
Идентификатор кодека : XVID
Идентификатор кодека/Подсказка : XviD
Продолжительность : 50 м.
Битрейт : 1549 Кбит/сек
Ширина : 640 пикселей
Высота : 480 пикселей
Соотношение сторон : 4:3
Частота кадров : 25,000 кадров/сек
Цветовое пространство : YUV
Субдискретизация насыщенности : 4:2:0
Битовая глубина : 8 бит
Тип развёртки : Прогрессивная
Метод сжатия : С потерями
Бит/(Пиксели*Кадры) : 0.202
Размер потока : 556 Мбайт (94%)
Библиотека кодирования : XviD 64
Аудио
Идентификатор : 1
Формат : MPEG Audio
Версия формата : Version 1
Профиль формата : Layer 3
Режим : Joint stereo
Расширение режима : MS Stereo
Идентификатор кодека : 55
Идентификатор кодека/Подсказка : MP3
Продолжительность : 50 м.
Вид битрейта : Постоянный
Битрейт : 96,0 Кбит/сек
Каналы : 2 канала
Частота : 32,0 КГц
Метод сжатия : С потерями
Размер потока : 34,4 Мбайт (6%)
Выравнивание : Соединение по промежуткам
Продолжительность промежутка : 40 мс. (1,00 видеокадр)
Время предзагрузки промежутка : 504 мс.
Библиотека кодирования : LAME3.98r
Настройки программы : -m j -V 4 -q 2 -lowpass 15.1 -b 96
       

Двери исчезают в полдень (эфир от 03.06.2012) SATRip

В этом выпуске команда «Дачного ответа» несет свет в комнату без окон, превращает лестницу в кладовку, маскирует двери под стены и прячет телевизор в стеклянной стене. Под руководством Инны Молодцовой и Василия Пичугина мы создали лаконичный, современный и по-настоящему функциональный интерьер с полной иллюзией изолированности.

MediaInfo

Общее
Полное имя : E:\Films\Дачный ответ - 2012 (Мегапак)\18. Dachnii.otvet.03.06.12.XviD.SATRip.avi
Формат : AVI
Формат/Информация : Audio Video Interleave
Размер файла : 597 Мбайт
Продолжительность : 48 м.
Общий поток : 1705 Кбит/сек
Программа кодирования : VirtualDubMod 1.5.10.3 | (build 2550/release)
Библиотека кодирования : VirtualDubMod build 2550/release
Видео
Идентификатор : 0
Формат : MPEG-4 Visual
Профиль формата : Advanced [email protected]
Параметр BVOP формата : 1
Параметр QPel формата : Нет
Параметр GMC формата : Без точки перехода
Параметр матрицы формата : Default (H.263)
Идентификатор кодека : XVID
Идентификатор кодека/Подсказка : XviD
Продолжительность : 48 м.
Битрейт : 1600 Кбит/сек
Ширина : 640 пикселей
Высота : 480 пикселей
Соотношение сторон : 4:3
Частота кадров : 25,000 кадров/сек
Цветовое пространство : YUV
Субдискретизация насыщенности : 4:2:0
Битовая глубина : 8 бит
Тип развёртки : Прогрессивная
Метод сжатия : С потерями
Бит/(Пиксели*Кадры) : 0.208
Размер потока : 560 Мбайт (94%)
Библиотека кодирования : XviD 64
Аудио
Идентификатор : 1
Формат : MPEG Audio
Версия формата : Version 1
Профиль формата : Layer 3
Режим : Joint stereo
Расширение режима : MS Stereo
Идентификатор кодека : 55
Идентификатор кодека/Подсказка : MP3
Продолжительность : 48 м.
Вид битрейта : Постоянный
Битрейт : 96,0 Кбит/сек
Каналы : 2 канала
Частота : 32,0 КГц
Метод сжатия : С потерями
Размер потока : 33,6 Мбайт (6%)
Выравнивание : Соединение по промежуткам
Продолжительность промежутка : 40 мс. (1,00 видеокадр)
Время предзагрузки промежутка : 504 мс.
Библиотека кодирования : LAME3.98r
Настройки программы : -m j -V 4 -q 2 -lowpass 15.1 -b 96
       

Новый старый дом" (эфир от 11.06.2012) SATRip

Телебины очень гордятся своим домом: он чудом уцелел во время бомбежек Великой Отечественной Войны, в нем родились и выросли несколько поколений семьи. За 75 лет здание, конечно, изменилось: появилась большая 2-этажная пристройка, а другая часть дома опустела. А ведь там достаточно места, чтобы организовать просторную гостиную, которой так не хватает хозяевам.

MediaInfo

Общее
Полное имя : E:\Films\Дачный ответ - 2012 (Мегапак)\19. Dachnii.otvet.11.06.12.XviD.SATRip.avi
Формат : AVI
Формат/Информация : Audio Video Interleave
Размер файла : 560 Мбайт
Продолжительность : 47 м.
Общий поток : 1637 Кбит/сек
Библиотека кодирования : VirtualDub build 28312/release
Видео
Идентификатор : 0
Формат : MPEG-4 Visual
Параметр BVOP формата : 1
Параметр QPel формата : Нет
Параметр GMC формата : Без точки перехода
Параметр матрицы формата : Default (H.263)
Режим смешивания : Сжатый битовый поток
Идентификатор кодека : DX50
Идентификатор кодека/Подсказка : DivX 5
Продолжительность : 47 м.
Битрейт : 1500 Кбит/сек
Ширина : 704 пикселя
Высота : 528 пикселей
Соотношение сторон : 4:3
Частота кадров : 25,000 кадров/сек
Цветовое пространство : YUV
Субдискретизация насыщенности : 4:2:0
Битовая глубина : 8 бит
Тип развёртки : Прогрессивная
Метод сжатия : С потерями
Бит/(Пиксели*Кадры) : 0.161
Размер потока : 513 Мбайт (92%)
Библиотека кодирования : DivX 6.8.5 (UTC 2009-08-20)
Аудио
Идентификатор : 1
Формат : MPEG Audio
Версия формата : Version 1
Профиль формата : Layer 3
Режим : Joint stereo
Расширение режима : MS Stereo
Идентификатор кодека : 55
Идентификатор кодека/Подсказка : MP3
Продолжительность : 47 м.
Вид битрейта : Постоянный
Битрейт : 128 Кбит/сек
Каналы : 2 канала
Частота : 48,0 КГц
Метод сжатия : С потерями
Задержка видео : 120 мс.
Размер потока : 43,8 Мбайт (8%)
Выравнивание : Разделение по промежуткам
Продолжительность промежутка : 40 мс. (1,00 видеокадр)
Время предзагрузки промежутка : 500 мс.
       

Цветы и птицы". (эфир от 17.06.2012) SATRip

Команда «Дачного ответа» берется за переделку спальни для «самой лучшей мамы на свете» – именно так называют героиню этой программы ее дочери — и сделает все возможное, чтобы и спальня получилась самой лучшей. Дизайнер Жюльетта Ситникова превратит 14 квадратных метров в вечноцветущий сад с райскими птицами.

MediaInfo

Общее
Полное имя : E:\Films\Дачный ответ - 2012 (Мегапак)\19. Dachnii.otvet.17.06.12.XviD.SATRip.avi
Формат : AVI
Формат/Информация : Audio Video Interleave
Размер файла : 538 Мбайт
Продолжительность : 45 м.
Общий поток : 1637 Кбит/сек
Библиотека кодирования : VirtualDub build 28312/release
Видео
Идентификатор : 0
Формат : MPEG-4 Visual
Параметр BVOP формата : 1
Параметр QPel формата : Нет
Параметр GMC формата : Без точки перехода
Параметр матрицы формата : Default (H.263)
Режим смешивания : Сжатый битовый поток
Идентификатор кодека : DX50
Идентификатор кодека/Подсказка : DivX 5
Продолжительность : 45 м.
Битрейт : 1499 Кбит/сек
Ширина : 704 пикселя
Высота : 528 пикселей
Соотношение сторон : 4:3
Частота кадров : 25,000 кадров/сек
Цветовое пространство : YUV
Субдискретизация насыщенности : 4:2:0
Битовая глубина : 8 бит
Тип развёртки : Прогрессивная
Метод сжатия : С потерями
Бит/(Пиксели*Кадры) : 0.161
Размер потока : 493 Мбайт (92%)
Библиотека кодирования : DivX 6.8.5 (UTC 2009-08-20)
Аудио
Идентификатор : 1
Формат : MPEG Audio
Версия формата : Version 1
Профиль формата : Layer 3
Режим : Joint stereo
Расширение режима : MS Stereo
Идентификатор кодека : 55
Идентификатор кодека/Подсказка : MP3
Продолжительность : 45 м.
Вид битрейта : Постоянный
Битрейт : 128 Кбит/сек
Каналы : 2 канала
Частота : 48,0 КГц
Метод сжатия : С потерями
Задержка видео : 100 мс.
Размер потока : 42,1 Мбайт (8%)
Выравнивание : Разделение по промежуткам
Продолжительность промежутка : 40 мс. (1,00 видеокадр)
Время предзагрузки промежутка : 500 мс.
       

Ну очень английская гостиная" (эфир от 24.06.2012) SATRip

В этой программе «Дачный ответ» немного поиронизирует. Дело в том, что нашим героям, обитающим в типичном интерьере конца 70-х, очень нравится английский стиль. Совсем недавно мы уже переделывали комнату как раз в духе старой Англии. И, чтобы не повторяться, решили воплотить здесь не английский, а гиперанглийский стиль. Прежде всего он проявится в размерах. Вместе с дизайнером Еленой Наротневой мы построим не камин, а каминище, поставим не диван, а диванище, не торшер, а торщерище. Здесь появится даже Биг-Бен. И каждая деталь нового интерьера будет всем своим видом сообщать: «я английская-преанглийская!».

MediaInfo

Общее
Полное имя : E:\Films\Дачный ответ - 2012 (Мегапак)\20. Dachnii.otvet.24.06.12.XviD.SATRip.avi
Формат : AVI
Формат/Информация : Audio Video Interleave
Размер файла : 555 Мбайт
Продолжительность : 47 м.
Общий поток : 1637 Кбит/сек
Библиотека кодирования : VirtualDub build 28312/release
Видео
Идентификатор : 0
Формат : MPEG-4 Visual
Параметр BVOP формата : 1
Параметр QPel формата : Нет
Параметр GMC формата : Без точки перехода
Параметр матрицы формата : Default (H.263)
Режим смешивания : Сжатый битовый поток
Идентификатор кодека : DX50
Идентификатор кодека/Подсказка : DivX 5
Продолжительность : 47 м.
Битрейт : 1500 Кбит/сек
Ширина : 704 пикселя
Высота : 528 пикселей
Соотношение сторон : 4:3
Частота кадров : 25,000 кадров/сек
Цветовое пространство : YUV
Субдискретизация насыщенности : 4:2:0
Битовая глубина : 8 бит
Тип развёртки : Прогрессивная
Метод сжатия : С потерями
Бит/(Пиксели*Кадры) : 0.161
Размер потока : 508 Мбайт (92%)
Библиотека кодирования : DivX 6.8.5 (UTC 2009-08-20)
Аудио
Идентификатор : 1
Формат : MPEG Audio
Версия формата : Version 1
Профиль формата : Layer 3
Режим : Joint stereo
Расширение режима : MS Stereo
Идентификатор кодека : 55
Идентификатор кодека/Подсказка : MP3
Продолжительность : 47 м.
Вид битрейта : Постоянный
Битрейт : 128 Кбит/сек
Каналы : 2 канала
Частота : 48,0 КГц
Метод сжатия : С потерями
Задержка видео : 120 мс.
Размер потока : 43,4 Мбайт (8%)
Выравнивание : Разделение по промежуткам
Продолжительность промежутка : 40 мс. (1,00 видеокадр)
Время предзагрузки промежутка : 500 мс.
       

Льняная мансарда (эфир от 01.07.2012) IPTVRip

Герои этой программы – Светлана, Андрей, 10-летняя Юля и двухгодовалый Ярослав – фактически живут под крышей: на первом этаже небольшого дома расположены кухня, гостиная и ванная, а в мансандре устроено две спальни. А папе с мамой так хочется, чтобы и у детей, и у взрослых была своя территория! Комната сестренки слишком тесная, чтобы делить ее с братом, а переделать холл в еще одну спальню – значит лишить детей игровой. Вот и ломает семейство Звоновых голову над тем, как поступить!
Вместе с дизайнером Ольгой Лисицыной «Дачный ответ» берется правильно организовать пространство: исчезнет низкий давящий потолок, освободится место под кровельными скатами, иначе встанут межкомнатные перегородки. В ход пойдут простые, натуральные материалы — деревянный брус и фанеру. А стены будут декорированы старинным способом – обобьем их льном, что создаст экологичный, уютный и неперегруженный деталями интерьер, в котором будет приятно и удобно находиться всей семье.

MediaInfo

Общее
Полное имя : E:\Films\Дачный ответ - 2012 (Мегапак)\21. Dachnii.otvet.01.07.12.XviD.IPTVRip.avi
Формат : AVI
Формат/Информация : Audio Video Interleave
Размер файла : 596 Мбайт
Продолжительность : 50 м.
Общий поток : 1637 Кбит/сек
Библиотека кодирования : VirtualDub build 28312/release
Видео
Идентификатор : 0
Формат : MPEG-4 Visual
Параметр BVOP формата : 1
Параметр QPel формата : Нет
Параметр GMC формата : Без точки перехода
Параметр матрицы формата : Default (H.263)
Режим смешивания : Сжатый битовый поток
Идентификатор кодека : DX50
Идентификатор кодека/Подсказка : DivX 5
Продолжительность : 50 м.
Битрейт : 1500 Кбит/сек
Ширина : 704 пикселя
Высота : 528 пикселей
Соотношение сторон : 4:3
Частота кадров : 25,000 кадров/сек
Цветовое пространство : YUV
Субдискретизация насыщенности : 4:2:0
Битовая глубина : 8 бит
Тип развёртки : Прогрессивная
Метод сжатия : С потерями
Бит/(Пиксели*Кадры) : 0.161
Размер потока : 546 Мбайт (92%)
Библиотека кодирования : DivX 6.8.5 (UTC 2009-08-20)
Аудио
Идентификатор : 1
Формат : MPEG Audio
Версия формата : Version 1
Профиль формата : Layer 3
Режим : Joint stereo
Расширение режима : MS Stereo
Идентификатор кодека : 55
Идентификатор кодека/Подсказка : MP3
Продолжительность : 50 м.
Вид битрейта : Постоянный
Битрейт : 128 Кбит/сек
Каналы : 2 канала
Частота : 48,0 КГц
Метод сжатия : С потерями
Задержка видео : 120 мс.
Размер потока : 46,6 Мбайт (8%)
Выравнивание : Разделение по промежуткам
Продолжительность промежутка : 40 мс. (1,00 видеокадр)
Время предзагрузки промежутка : 500 мс.
       

Шашлык, кино и караоке (эфир от 08.07.2012) IPTVRip

Шашлыки, как известно, – главное удовольствие любого дачника. Герои этой программы, семья Савиных, готовят их часто и умеючи: испробовали больше 100 рецептов, придумывая разные маринады для мяса, рыбы и овощей. Ароматы зазывают соседей, и Савины любят принимать у себя большие компании.
Вместе с архитекторами Дмитрием Александровым и Верой Гапон «Дачный ответ» построит для наших героев удобную беседку из дерева и металла. В одной ее части появится современный мангал, а в другой – кинотеатр и большой обеденный стол, за которым смогут свободно разместиться все четыре поколения гостеприимной семьи.

MediaInfo

Общее
Полное имя : E:\Films\Дачный ответ - 2012 (Мегапак)\23. Dachnii.otvet.08.07.12.XviD.IPTVRip.avi
Формат : AVI
Формат/Информация : Audio Video Interleave
Размер файла : 600 Мбайт
Продолжительность : 48 м.
Общий поток : 1714 Кбит/сек
Программа кодирования : VirtualDubMod 1.5.10.3 | (build 2550/release)
Библиотека кодирования : VirtualDubMod build 2550/release
Видео
Идентификатор : 0
Формат : MPEG-4 Visual
Профиль формата : Advanced [email protected]
Параметр BVOP формата : 2
Параметр QPel формата : Нет
Параметр GMC формата : Без точки перехода
Параметр матрицы формата : Default (H.263)
Идентификатор кодека : XVID
Идентификатор кодека/Подсказка : XviD
Продолжительность : 48 м.
Битрейт : 1577 Кбит/сек
Ширина : 704 пикселя
Высота : 528 пикселей
Соотношение сторон : 4:3
Частота кадров : 25,000 кадров/сек
Цветовое пространство : YUV
Субдискретизация насыщенности : 4:2:0
Битовая глубина : 8 бит
Тип развёртки : Прогрессивная
Метод сжатия : С потерями
Бит/(Пиксели*Кадры) : 0.170
Размер потока : 552 Мбайт (92%)
Библиотека кодирования : XviD 1.2.1 (UTC 2008-12-04)
Аудио
Идентификатор : 1
Формат : MPEG Audio
Версия формата : Version 1
Профиль формата : Layer 3
Идентификатор кодека : 55
Идентификатор кодека/Подсказка : MP3
Продолжительность : 48 м.
Вид битрейта : Постоянный
Битрейт : 128 Кбит/сек
Каналы : 2 канала
Частота : 48,0 КГц
Метод сжатия : С потерями
Размер потока : 44,8 Мбайт (7%)
Выравнивание : Соединение по промежуткам
Продолжительность промежутка : 40 мс. (1,00 видеокадр)
Время предзагрузки промежутка : 504 мс.
Библиотека кодирования : LAME3.99r
Настройки программы : -m s -V 4 -q 2 -lowpass 17 -b 128
       

Утиное озеро (эфир от 15.07.2012) IPTVRip

«Дачный ответ» вместе с дизайнерами Натальей Атановой и Ириной Новиковой займется переделкой на участке семьи Селивановых. Необжитую территорию за домом мы превратим в красивейшее место для отдыха. Его центром станет пруд оригинальной формы, обрамленный яркими цветниками и деревянной перголой. А для уток, которые прилетают сюда ежегодно, в нем появится домик-лодочка.

MediaInfo

Общее
Полное имя : E:\Films\Дачный ответ - 2012 (Мегапак)\24. Dachnii.otvet.15.07.12.XviD.IPTVRip.avi
Формат : AVI
Формат/Информация : Audio Video Interleave
Размер файла : 581 Мбайт
Продолжительность : 48 м.
Общий поток : 1666 Кбит/сек
Программа кодирования : VirtualDubMod 1.5.10.3 | (build 2550/release)
Библиотека кодирования : VirtualDubMod build 2550/release
Видео
Идентификатор : 0
Формат : MPEG-4 Visual
Профиль формата : Advanced [email protected]
Параметр BVOP формата : 2
Параметр QPel формата : Да
Параметр GMC формата : 3 точки перехода
Параметр матрицы формата : Default (H.263)
Идентификатор кодека : XVID
Идентификатор кодека/Подсказка : XviD
Продолжительность : 48 м.
Битрейт : 1529 Кбит/сек
Ширина : 704 пикселя
Высота : 528 пикселей
Соотношение сторон : 4:3
Частота кадров : 25,000 кадров/сек
Цветовое пространство : YUV
Субдискретизация насыщенности : 4:2:0
Битовая глубина : 8 бит
Тип развёртки : Прогрессивная
Метод сжатия : С потерями
Бит/(Пиксели*Кадры) : 0.164
Размер потока : 533 Мбайт (92%)
Библиотека кодирования : XviD 1.2.1 (UTC 2008-12-04)
Аудио
Идентификатор : 1
Формат : MPEG Audio
Версия формата : Version 1
Профиль формата : Layer 3
Идентификатор кодека : 55
Идентификатор кодека/Подсказка : MP3
Продолжительность : 48 м.
Вид битрейта : Постоянный
Битрейт : 128 Кбит/сек
Каналы : 2 канала
Частота : 48,0 КГц
Метод сжатия : С потерями
Размер потока : 44,6 Мбайт (8%)
Выравнивание : Соединение по промежуткам
Продолжительность промежутка : 40 мс. (1,00 видеокадр)
Время предзагрузки промежутка : 504 мс.
Библиотека кодирования : LAME3.99r
Настройки программы : -m s -V 4 -q 2 -lowpass 17 -b 128
       

Веранда с историей (эфир от 09.09.2012) IPTVRip

«Дачный ответ» под руководством Анны Смирновой строит веранду, на которой встретятся прошлое и современность, где будет воссоздана атмосфера дома с традициями тех времен, когда использовались только натуральные материалы: дерево, кирпич ручной работы, дранка, льняные ткани, вышивки.
Что касается функциональной стороны, это будет постройка, в которой семья сможет собираться круглый год и заниматься каждый своим делом. Взрослые — общаться и готовить любимые блюда на открытом огне, а дети — играть, причем как внутри, так и на открытой террасе.

MediaInfo

Общее
Полное имя : E:\Films\Дачный ответ - 2012 (Мегапак)\25. Dachnii.otvet.09.09.12.XviD.IPTVRip.avi
Формат : AVI
Формат/Информация : Audio Video Interleave
Размер файла : 518 Мбайт
Продолжительность : 50 м.
Общий поток : 1434 Кбит/сек
Программа кодирования : VirtualDubMod 1.5.10.3 | (build 2550/release)
Библиотека кодирования : VirtualDubMod build 2550/release
Видео
Идентификатор : 0
Формат : MPEG-4 Visual
Профиль формата : Advanced [email protected]
Параметр BVOP формата : 2
Параметр QPel формата : Нет
Параметр GMC формата : Без точки перехода
Параметр матрицы формата : Default (H.263)
Идентификатор кодека : XVID
Идентификатор кодека/Подсказка : XviD
Продолжительность : 50 м.
Битрейт : 1296 Кбит/сек
Ширина : 704 пикселя
Высота : 528 пикселей
Соотношение сторон : 4:3
Частота кадров : 25,000 кадров/сек
Цветовое пространство : YUV
Субдискретизация насыщенности : 4:2:0
Битовая глубина : 8 бит
Тип развёртки : Прогрессивная
Метод сжатия : С потерями
Бит/(Пиксели*Кадры) : 0.139
Размер потока : 468 Мбайт (90%)
Библиотека кодирования : XviD 1.2.1 (UTC 2008-12-04)
Аудио
Идентификатор : 1
Формат : MPEG Audio
Версия формата : Version 1
Профиль формата : Layer 3
Идентификатор кодека : 55
Идентификатор кодека/Подсказка : MP3
Продолжительность : 50 м.
Вид битрейта : Постоянный
Битрейт : 128 Кбит/сек
Каналы : 2 канала
Частота : 48,0 КГц
Метод сжатия : С потерями
Размер потока : 46,2 Мбайт (9%)
Выравнивание : Соединение по промежуткам
Продолжительность промежутка : 40 мс. (1,00 видеокадр)
Время предзагрузки промежутка : 504 мс.
Библиотека кодирования : LAME3.99r
Настройки программы : -m s -V 4 -q 2 -lowpass 17 -b 128
       

Подземелье для сокровищ (эфир от 16.09.2012) IPTVRip

Обычно мы создаем проекты для людей, а на этот раз решили сделать пространство для вещей. Архитектор Юлия Сысоева переделала подвал в доме семьи Буяновых в склад класса люкс для хранения многочисленного инвентаря – с собственным лифтом, сейфом и холодильником!

MediaInfo

Общее
Полное имя : E:\Films\Дачный ответ - 2012 (Мегапак)\26. Dachnii.otvet.16.09.12.XviD.IPTVRip.avi
Формат : AVI
Формат/Информация : Audio Video Interleave
Размер файла : 684 Мбайт
Продолжительность : 49 м.
Общий поток : 1932 Кбит/сек
Программа кодирования : Lavf52.94.0
Видео
Идентификатор : 0
Формат : xvid
Идентификатор кодека : xvid
Продолжительность : 49 м.
Битрейт : 1664 Кбит/сек
Ширина : 720 пикселей
Высота : 540 пикселей
Соотношение сторон : 4:3
Частота кадров : 25,000 кадров/сек
Бит/(Пиксели*Кадры) : 0.171
Размер потока : 589 Мбайт (86%)
Аудио
Идентификатор : 1
Формат : MPEG Audio
Версия формата : Version 1
Профиль формата : Layer 3
Режим : Joint stereo
Расширение режима : MS Stereo
Идентификатор кодека : 55
Идентификатор кодека/Подсказка : MP3
Продолжительность : 49 м.
Вид битрейта : Постоянный
Битрейт : 256 Кбит/сек
Каналы : 2 канала
Частота : 48,0 КГц
Метод сжатия : С потерями
Размер потока : 90,6 Мбайт (13%)
Выравнивание : Соединение по промежуткам
Продолжительность промежутка : 24 мс. (0,60 видеокадр)
       

Избушка на опушке (эфир от 23.09.2012) IPTVRip

Из очень редкого строительного материала – сухостойной серебристой сосны – мы вместе с архитектором Виталием Ангаткиным построили террасу с необычной крышей. Возвели многофункциональный печной комплекс, сделали большой стол и широкие лавки для семейных трапез. А от остального участка террасу отделила обустроенная нами опушка – альпийская горка с молодыми соснами, елями и можжевельниками.

MediaInfo

Общее
Полное имя : E:\Films\Дачный ответ - 2012 (Мегапак)\27. Dachnii.otvet.23.09.12.XviD.IPTVRip.avi
Формат : AVI
Формат/Информация : Audio Video Interleave
Размер файла : 684 Мбайт
Продолжительность : 50 м.
Общий поток : 1895 Кбит/сек
Программа кодирования : Lavf52.94.0
Видео
Идентификатор : 0
Формат : xvid
Идентификатор кодека : xvid
Продолжительность : 50 м.
Битрейт : 1626 Кбит/сек
Ширина : 720 пикселей
Высота : 540 пикселей
Соотношение сторон : 4:3
Частота кадров : 25,000 кадров/сек
Бит/(Пиксели*Кадры) : 0.167
Размер потока : 587 Мбайт (86%)
Аудио
Идентификатор : 1
Формат : MPEG Audio
Версия формата : Version 1
Профиль формата : Layer 3
Режим : Joint stereo
Расширение режима : MS Stereo
Идентификатор кодека : 55
Идентификатор кодека/Подсказка : MP3
Продолжительность : 50 м.
Вид битрейта : Постоянный
Битрейт : 256 Кбит/сек
Каналы : 2 канала
Частота : 48,0 КГц
Метод сжатия : С потерями
Размер потока : 92,4 Мбайт (14%)
Выравнивание : Соединение по промежуткам
Продолжительность промежутка : 24 мс. (0,60 видеокадр)
       

Упражнения в архитектурном оригами (эфир от 30.09.2012) SATRip

На создание архитектурного комплекса с мини-кухней, спортплощадкой и летним кинотеатром Петра Костёлова вдохновило исскусство оригами. Только вместо бумаги взяли более брутальные материалы: металл и экзотическое дерево «гарапа».
Актуальный архитектурный тренд нагляднее всего иллюстрирует «книжка-раскладушка»: благодаря точно нанесенным прорезям бумажный лист превращается в объемную конструкцию. Только у Петра Костёлова эта конструкция получилась зашитой экзотическим деревом — гарапой, а в ней оборудованы терраса для солнечных ванн, легкая летняя кухня и спортивная площадка.

MediaInfo

Общее
Полное имя : E:\Films\Дачный ответ - 2012 (Мегапак)\28. Dachnii.otvet.30.09.12.XviD.SATRip.avi
Формат : AVI
Формат/Информация : Audio Video Interleave
Размер файла : 558 Мбайт
Продолжительность : 47 м.
Общий поток : 1638 Кбит/сек
Библиотека кодирования : VirtualDub build 28312/release
Видео
Идентификатор : 0
Формат : MPEG-4 Visual
Параметр BVOP формата : 1
Параметр QPel формата : Нет
Параметр GMC формата : Без точки перехода
Параметр матрицы формата : Default (H.263)
Режим смешивания : Сжатый битовый поток
Идентификатор кодека : DX50
Идентификатор кодека/Подсказка : DivX 5
Продолжительность : 47 м.
Битрейт : 1500 Кбит/сек
Ширина : 704 пикселя
Высота : 528 пикселей
Соотношение сторон : 4:3
Частота кадров : 25,000 кадров/сек
Цветовое пространство : YUV
Субдискретизация насыщенности : 4:2:0
Битовая глубина : 8 бит
Тип развёртки : Прогрессивная
Метод сжатия : С потерями
Бит/(Пиксели*Кадры) : 0.161
Размер потока : 511 Мбайт (92%)
Библиотека кодирования : DivX 6.8.5 (UTC 2009-08-20)
Аудио
Идентификатор : 1
Формат : MPEG Audio
Версия формата : Version 1
Профиль формата : Layer 3
Режим : Joint stereo
Расширение режима : MS Stereo
Идентификатор кодека : 55
Идентификатор кодека/Подсказка : MP3
Продолжительность : 47 м.
Вид битрейта : Постоянный
Битрейт : 128 Кбит/сек
Каналы : 2 канала
Частота : 48,0 КГц
Метод сжатия : С потерями
Задержка видео : 90 мс.
Размер потока : 43,6 Мбайт (8%)
Выравнивание : Разделение по промежуткам
Продолжительность промежутка : 40 мс. (1,00 видеокадр)
Время предзагрузки промежутка : 500 мс.
       

Гламурный предбанник (эфир от 07.10.2012) SATRip

Эта переделка – для молодой пары, поэтому делать традиционный «предбанник» в помещении, соседствующем с сауной, мы не будем. Напротив, Анастасия Рыкова и Анна Денисова решили превратить эту территорию в современный мини-спа-салон для отдыха и расслабления. Белый, чистый, светлый, с барной стойкой

MediaInfo

Общее
Полное имя : E:\Films\Дачный ответ - 2012 (Мегапак)\29. Dachnii.otvet.07.10.12.XviD.SATRip.avi
Формат : AVI
Формат/Информация : Audio Video Interleave
Размер файла : 573 Мбайт
Продолжительность : 48 м.
Общий поток : 1637 Кбит/сек
Библиотека кодирования : VirtualDub build 28312/release
Видео
Идентификатор : 0
Формат : MPEG-4 Visual
Параметр BVOP формата : 1
Параметр QPel формата : Нет
Параметр GMC формата : Без точки перехода
Параметр матрицы формата : Default (H.263)
Режим смешивания : Сжатый битовый поток
Идентификатор кодека : DX50
Идентификатор кодека/Подсказка : DivX 5
Продолжительность : 48 м.
Битрейт : 1500 Кбит/сек
Ширина : 704 пикселя
Высота : 528 пикселей
Соотношение сторон : 4:3
Частота кадров : 25,000 кадров/сек
Цветовое пространство : YUV
Субдискретизация насыщенности : 4:2:0
Битовая глубина : 8 бит
Тип развёртки : Прогрессивная
Метод сжатия : С потерями
Бит/(Пиксели*Кадры) : 0.161
Размер потока : 525 Мбайт (92%)
Библиотека кодирования : DivX 6.8.5 (UTC 2009-08-20)
Аудио
Идентификатор : 1
Формат : MPEG Audio
Версия формата : Version 1
Профиль формата : Layer 3
Режим : Joint stereo
Расширение режима : MS Stereo
Идентификатор кодека : 55
Идентификатор кодека/Подсказка : MP3
Продолжительность : 48 м.
Вид битрейта : Постоянный
Битрейт : 128 Кбит/сек
Каналы : 2 канала
Частота : 48,0 КГц
Метод сжатия : С потерями
Задержка видео : 90 мс.
Размер потока : 44,8 Мбайт (8%)
Выравнивание : Разделение по промежуткам
Продолжительность промежутка : 40 мс. (1,00 видеокадр)
Время предзагрузки промежутка : 500 мс.
       

Ванная под открытым небом (эфир от 14.10.2012) SATRip

По просьбе семьи Смирновых мы превратили сауну в их доме в полноценную ванную комнату, настоящий райский уголок: со звездным небом, галечным полом, водопадом, раковиной, больше похожей на валун, и ванной в форме ореховой скорлупы.
Команда «Дачного ответа» займется ванной комнатой. Главным действующим лицом переделки станет черный цвет. Он понадобится дизайнерам для того, чтобы создать иллюзию безграничности пространства и отсутствия в помещении стен и потолка.
Ну, а кроме черного цвета, работать на иллюзию будут тропический пейзаж, настоящий водопад и галька.

MediaInfo

Общее
Полное имя : E:\Films\Дачный ответ - 2012 (Мегапак)\30. Dachnii.otvet.14.10.12.XviD.SATRip.avi
Формат : AVI
Формат/Информация : Audio Video Interleave
Размер файла : 575 Мбайт
Продолжительность : 49 м.
Общий поток : 1636 Кбит/сек
Программа кодирования : TMPGEnc Video Mastering Works 5 Version. 5.0.6.38
Библиотека кодирования : TMPGEnc Video Mastering Works 5 Version. 5.0.6.38
Видео
Идентификатор : 0
Формат : MPEG-4 Visual
Параметр BVOP формата : 1
Параметр QPel формата : Нет
Параметр GMC формата : Без точки перехода
Параметр матрицы формата : Default (H.263)
Режим смешивания : Сжатый битовый поток
Идентификатор кодека : DX50
Идентификатор кодека/Подсказка : DivX 5
Продолжительность : 49 м.
Битрейт : 1500 Кбит/сек
Ширина : 704 пикселя
Высота : 528 пикселей
Соотношение сторон : 4:3
Частота кадров : 25,000 кадров/сек
Цветовое пространство : YUV
Субдискретизация насыщенности : 4:2:0
Битовая глубина : 8 бит
Тип развёртки : Прогрессивная
Метод сжатия : С потерями
Бит/(Пиксели*Кадры) : 0.161
Размер потока : 528 Мбайт (92%)
Библиотека кодирования : DivX 6.8.5 (UTC 2009-08-20)
Аудио
Идентификатор : 1
Формат : MPEG Audio
Версия формата : Version 1
Профиль формата : Layer 3
Режим : Joint stereo
Расширение режима : MS Stereo
Идентификатор кодека : 55
Идентификатор кодека/Подсказка : MP3
Продолжительность : 49 м.
Вид битрейта : Постоянный
Битрейт : 128 Кбит/сек
Каналы : 2 канала
Частота : 48,0 КГц
Метод сжатия : С потерями
Размер потока : 45,0 Мбайт (8%)
Выравнивание : Разделение по промежуткам
Продолжительность промежутка : 250 мс. (6,25 видеокадров)
Время предзагрузки промежутка : 207 мс.
       

С оттенком рококо (эфир от 21.10.2012) SATRip

Три года назад в доме Елены и ее мамы Светланы сгорело все, что создавалось на протяжении 15 лет. Все, кроме стен. Но за черной полосой всегда наступае белая – именно в этой гамме мы оформили многофункциональную гостиную на первом этаже, добавив кокетливых завитков, характерных для рококо.

MediaInfo

Общее
Полное имя : E:\Films\Дачный ответ - 2012 (Мегапак)\31. Dachnii.otvet.21.10.12.XviD.SATRip.avi
Формат : AVI
Формат/Информация : Audio Video Interleave
Размер файла : 572 Мбайт
Продолжительность : 48 м.
Общий поток : 1638 Кбит/сек
Библиотека кодирования : VirtualDub build 28312/release
Видео
Идентификатор : 0
Формат : MPEG-4 Visual
Параметр BVOP формата : 1
Параметр QPel формата : Нет
Параметр GMC формата : Без точки перехода
Параметр матрицы формата : Default (H.263)
Режим смешивания : Сжатый битовый поток
Идентификатор кодека : DX50
Идентификатор кодека/Подсказка : DivX 5
Продолжительность : 48 м.
Битрейт : 1500 Кбит/сек
Ширина : 704 пикселя
Высота : 528 пикселей
Соотношение сторон : 4:3
Частота кадров : 25,000 кадров/сек
Цветовое пространство : YUV
Субдискретизация насыщенности : 4:2:0
Битовая глубина : 8 бит
Тип развёртки : Прогрессивная
Метод сжатия : С потерями
Бит/(Пиксели*Кадры) : 0.161
Размер потока : 524 Мбайт (92%)
Библиотека кодирования : DivX 6.8.5 (UTC 2009-08-20)
Аудио
Идентификатор : 1
Формат : MPEG Audio
Версия формата : Version 1
Профиль формата : Layer 3
Режим : Joint stereo
Расширение режима : MS Stereo
Идентификатор кодека : 55
Идентификатор кодека/Подсказка : MP3
Продолжительность : 48 м.
Вид битрейта : Постоянный
Битрейт : 128 Кбит/сек
Каналы : 2 канала
Частота : 48,0 КГц
Метод сжатия : С потерями
Задержка видео : 100 мс.
Размер потока : 44,7 Мбайт (8%)
Выравнивание : Разделение по промежуткам
Продолжительность промежутка : 40 мс. (1,00 видеокадр)
Время предзагрузки промежутка : 500 мс.
       

Павильон «Четыре сезона» (эфир от 28.10.2012) SATRip

«Дачный ответ» построит всесезонный павильон, который зимой послужит теплым каминным залом, а летом будет трансформироваться в открытую беседку. И все благодаря необыкновенной раздвижной стене! А внутри павильона разместятся гриль, большой обеденный стол и детский уголок.

MediaInfo

Общее
Полное имя : E:\Films\Дачный ответ - 2012 (Мегапак)\32. Dachnii.otvet.28.10.12.XviD.SATRip.avi
Формат : AVI
Формат/Информация : Audio Video Interleave
Размер файла : 576 Мбайт
Продолжительность : 49 м.
Общий поток : 1638 Кбит/сек
Библиотека кодирования : VirtualDub build 28312/release
Видео
Идентификатор : 0
Формат : MPEG-4 Visual
Параметр BVOP формата : 1
Параметр QPel формата : Нет
Параметр GMC формата : Без точки перехода
Параметр матрицы формата : Default (H.263)
Режим смешивания : Сжатый битовый поток
Идентификатор кодека : DX50
Идентификатор кодека/Подсказка : DivX 5
Продолжительность : 49 м.
Битрейт : 1500 Кбит/сек
Ширина : 704 пикселя
Высота : 528 пикселей
Соотношение сторон : 4:3
Частота кадров : 25,000 кадров/сек
Цветовое пространство : YUV
Субдискретизация насыщенности : 4:2:0
Битовая глубина : 8 бит
Тип развёртки : Прогрессивная
Метод сжатия : С потерями
Бит/(Пиксели*Кадры) : 0.161
Размер потока : 528 Мбайт (92%)
Библиотека кодирования : DivX 6.8.5 (UTC 2009-08-20)
Аудио
Идентификатор : 1
Формат : MPEG Audio
Версия формата : Version 1
Профиль формата : Layer 3
Режим : Joint stereo
Расширение режима : MS Stereo
Идентификатор кодека : 55
Идентификатор кодека/Подсказка : MP3
Продолжительность : 49 м.
Вид битрейта : Постоянный
Битрейт : 128 Кбит/сек
Каналы : 2 канала
Частота : 48,0 КГц
Метод сжатия : С потерями
Задержка видео : 90 мс.
Размер потока : 45,0 Мбайт (8%)
Выравнивание : Разделение по промежуткам
Продолжительность промежутка : 40 мс. (1,00 видеокадр)
Время предзагрузки промежутка : 500 мс.
       

Сруб в ажуре (эфир от 04.11.2012) SATRip

Основным декоративным элементом кухни-столовой в деревянном срубе, который преобразили Максим Камнев и Ася Холмогорова, стали ажурные панели с древнерусским узором. Они продолжили тему резных наличников на окнах, которыми так гордятся хозяева. На кухне лазерная вязь покрыла мебель, а в столовой – потолок с подсветкой.

MediaInfo

Общее
Полное имя : E:\Films\Дачный ответ - 2012 (Мегапак)\33. Dachnii.otvet.04.11.12.XviD.SATRip.avi
Формат : AVI
Формат/Информация : Audio Video Interleave
Размер файла : 585 Мбайт
Продолжительность : 49 м.
Общий поток : 1637 Кбит/сек
Библиотека кодирования : VirtualDub build 28312/release
Видео
Идентификатор : 0
Формат : MPEG-4 Visual
Параметр BVOP формата : 1
Параметр QPel формата : Нет
Параметр GMC формата : Без точки перехода
Параметр матрицы формата : Default (H.263)
Режим смешивания : Сжатый битовый поток
Идентификатор кодека : DX50
Идентификатор кодека/Подсказка : DivX 5
Продолжительность : 49 м.
Битрейт : 1500 Кбит/сек
Ширина : 704 пикселя
Высота : 528 пикселей
Соотношение сторон : 4:3
Частота кадров : 25,000 кадров/сек
Цветовое пространство : YUV
Субдискретизация насыщенности : 4:2:0
Битовая глубина : 8 бит
Тип развёртки : Прогрессивная
Метод сжатия : С потерями
Бит/(Пиксели*Кадры) : 0.161
Размер потока : 536 Мбайт (92%)
Библиотека кодирования : DivX 6.8.5 (UTC 2009-08-20)
Аудио
Идентификатор : 1
Формат : MPEG Audio
Версия формата : Version 1
Профиль формата : Layer 3
Режим : Joint stereo
Расширение режима : MS Stereo
Идентификатор кодека : 55
Идентификатор кодека/Подсказка : MP3
Продолжительность : 49 м.
Вид битрейта : Постоянный
Битрейт : 128 Кбит/сек
Каналы : 2 канала
Частота : 48,0 КГц
Метод сжатия : С потерями
Задержка видео : 120 мс.
Размер потока : 45,8 Мбайт (8%)
Выравнивание : Разделение по промежуткам
Продолжительность промежутка : 40 мс. (1,00 видеокадр)
Время предзагрузки промежутка : 500 мс.
       

Шаляпинская усадьба XXI века (эфир от 11.11.2012) SATRip

В старом доме, в стенах которого когда-то звучал самый знаменитый бас России, мы создали атмосферу, характерную для интерьеров начала XX века. Классические приемы – лепнину на потолке, изразцовый камин, изысканную меблировку – мы дополнили современными деталями в декоре и в техническом оснащении. Так семейство Пресновых обрело на своей даче уют настоящей русской усадьбы и комфорт современной жизни.

MediaInfo

Общее
Полное имя : E:\Films\Дачный ответ - 2012 (Мегапак)\34. Dachnii.otvet.11.11.12.XviD.SATRip.avi
Формат : AVI
Формат/Информация : Audio Video Interleave
Размер файла : 568 Мбайт
Продолжительность : 48 м.
Общий поток : 1637 Кбит/сек
Библиотека кодирования : VirtualDub build 28312/release
Видео
Идентификатор : 0
Формат : MPEG-4 Visual
Параметр BVOP формата : 1
Параметр QPel формата : Нет
Параметр GMC формата : Без точки перехода
Параметр матрицы формата : Default (H.263)
Режим смешивания : Сжатый битовый поток
Идентификатор кодека : DX50
Идентификатор кодека/Подсказка : DivX 5
Продолжительность : 48 м.
Битрейт : 1500 Кбит/сек
Ширина : 704 пикселя
Высота : 528 пикселей
Соотношение сторон : 4:3
Частота кадров : 25,000 кадров/сек
Цветовое пространство : YUV
Субдискретизация насыщенности : 4:2:0
Битовая глубина : 8 бит
Тип развёртки : Прогрессивная
Метод сжатия : С потерями
Бит/(Пиксели*Кадры) : 0.161
Размер потока : 521 Мбайт (92%)
Библиотека кодирования : DivX 6.8.5 (UTC 2009-08-20)
Аудио
Идентификатор : 1
Формат : MPEG Audio
Версия формата : Version 1
Профиль формата : Layer 3
Режим : Joint stereo
Расширение режима : MS Stereo
Идентификатор кодека : 55
Идентификатор кодека/Подсказка : MP3
Продолжительность : 48 м.
Вид битрейта : Постоянный
Битрейт : 128 Кбит/сек
Каналы : 2 канала
Частота : 48,0 КГц
Метод сжатия : С потерями
Задержка видео : 100 мс.
Размер потока : 44,4 Мбайт (8%)
Выравнивание : Разделение по промежуткам
Продолжительность промежутка : 40 мс. (1,00 видеокадр)
Время предзагрузки промежутка : 500 мс.
       

Атмосфера приключений в итальянской спальне (эфир от 18.11.2012) IPTVRip

В очередной раз мансардная комната превратилась в полноценную и удобную спальню. И если бы не пейзаж за окном, то можно подумать, что вы попали в прибрежный домик где-нибудь в Италии: грубая штукатурка, теплое дерево, выгоревшее на солнце и потертое временем, камин с живым пламенем и милые старинные безделушки – каждая со своей неповторимой историей.

MediaInfo

Общее
Полное имя : E:\Films\Дачный ответ - 2012 (Мегапак)\35. Dachnii.otvet.18.11.12.XviD.IPTVRip.avi
Формат : AVI
Формат/Информация : Audio Video Interleave
Размер файла : 684 Мбайт
Продолжительность : 49 м.
Общий поток : 1929 Кбит/сек
Программа кодирования : Lavf52.94.0
Видео
Идентификатор : 0
Формат : xvid
Идентификатор кодека : xvid
Продолжительность : 49 м.
Битрейт : 1789 Кбит/сек
Ширина : 704 пикселя
Высота : 528 пикселей
Соотношение сторон : 4:3
Частота кадров : 25,000 кадров/сек
Бит/(Пиксели*Кадры) : 0.192
Размер потока : 634 Мбайт (93%)
Аудио
Идентификатор : 1
Формат : MPEG Audio
Версия формата : Version 1
Профиль формата : Layer 3
Режим : Joint stereo
Расширение режима : MS Stereo
Идентификатор кодека : 55
Идентификатор кодека/Подсказка : MP3
Продолжительность : 49 м.
Вид битрейта : Постоянный
Битрейт : 128 Кбит/сек
Каналы : 2 канала
Частота : 48,0 КГц
Метод сжатия : С потерями
Размер потока : 45,4 Мбайт (7%)
Выравнивание : Соединение по промежуткам
Продолжительность промежутка : 24 мс. (0,60 видеокадр)
       

Ночь нежна (эфир от 25.11.2012) IPTVRip

Мансарду-склад архитектор Егор Сомов превратил в современный скандинавский интерьер: со светлым полом, белыми стенами, обилием дерева и яркими акцентами. Стену над кроватью украсила диодная композиция-надпись «Ночь нежна». А функционально получилась почти что отдельная квартира, в которой так нуждались молодожены.

MediaInfo

Общее
Полное имя : E:\Films\Дачный ответ - 2012 (Мегапак)\36. Dachnii.otvet.25.11.12.XviD.IPTVRip.avi
Формат : AVI
Формат/Информация : Audio Video Interleave
Размер файла : 698 Мбайт
Продолжительность : 50 м.
Общий поток : 1937 Кбит/сек
Программа кодирования : Lavf52.94.0
Видео
Идентификатор : 0
Формат : xvid
Идентификатор кодека : xvid
Продолжительность : 50 м.
Битрейт : 1796 Кбит/сек
Ширина : 704 пикселя
Высота : 528 пикселей
Соотношение сторон : 4:3
Частота кадров : 25,000 кадров/сек
Бит/(Пиксели*Кадры) : 0.193
Размер потока : 648 Мбайт (93%)
Аудио
Идентификатор : 1
Формат : MPEG Audio
Версия формата : Version 1
Профиль формата : Layer 3
Режим : Joint stereo
Расширение режима : MS Stereo
Идентификатор кодека : 55
Идентификатор кодека/Подсказка : MP3
Продолжительность : 50 м.
Вид битрейта : Постоянный
Битрейт : 128 Кбит/сек
Каналы : 2 канала
Частота : 48,0 КГц
Метод сжатия : С потерями
Размер потока : 46,2 Мбайт (7%)
Выравнивание : Соединение по промежуткам
Продолжительность промежутка : 24 мс. (0,60 видеокадр)
       

На столе дрова, на стене дрова (эфир от 02.12.2012) IPTVRip

Вооружившись топором и не только, мы переделали кухню-столовую и гостиную в деревянном срубе. Из дров под руководством архитектора Андрея Волкова сложили стеллаж во всю стену, журнальный стол и кухонный фартук. В доме семьи Яремчук наконец-то поселились тепло и уют.

MediaInfo

Общее
Полное имя : E:\Films\Дачный ответ - 2012 (Мегапак)\37. Dachnii.otvet.02.12.12.XviD.IPTVRip.avi
Формат : AVI
Формат/Информация : Audio Video Interleave
Размер файла : 684 Мбайт
Продолжительность : 49 м.
Общий поток : 1945 Кбит/сек
Программа кодирования : Lavf52.94.0
Видео
Идентификатор : 0
Формат : xvid
Идентификатор кодека : xvid
Продолжительность : 49 м.
Битрейт : 1804 Кбит/сек
Ширина : 704 пикселя
Высота : 528 пикселей
Соотношение сторон : 4:3
Частота кадров : 25,000 кадров/сек
Бит/(Пиксели*Кадры) : 0.194
Размер потока : 634 Мбайт (93%)
Аудио
Идентификатор : 1
Формат : MPEG Audio
Версия формата : Version 1
Профиль формата : Layer 3
Режим : Joint stereo
Расширение режима : MS Stereo
Идентификатор кодека : 55
Идентификатор кодека/Подсказка : MP3
Продолжительность : 49 м.
Вид битрейта : Постоянный
Битрейт : 128 Кбит/сек
Каналы : 2 канала
Частота : 48,0 КГц
Метод сжатия : С потерями
Размер потока : 45,0 Мбайт (7%)
Выравнивание : Соединение по промежуткам
Продолжительность промежутка : 24 мс. (0,60 видеокадр)
       

Детская для малышей (эфир от 09.12.12) SATRip

Переделывая летнюю пристройку в детскую комнату для двух малышей, мы создали настоящий детский мир, который не имеет ничего общего с обычным интерьером для взрослых. Прорезали много окон (в том числе в полу) и устроили лабиринт с укромными уголками, потайными лесенками и шкафчиками.

MediaInfo

Общее
Полное имя : E:\Films\Дачный ответ - 2012 (Мегапак)\38. Dachnii.otvet.08.12.12.XviD.SATRip.avi
Формат : AVI
Формат/Информация : Audio Video Interleave
Размер файла : 605 Мбайт
Продолжительность : 50 м.
Общий поток : 1687 Кбит/сек
Программа кодирования : VirtualDubMod 1.5.10.3 |(build 2550/release)
Библиотека кодирования : VirtualDubMod build 2550/release
Видео
Идентификатор : 0
Формат : MPEG-4 Visual
Профиль формата : Advanced [email protected]
Параметр BVOP формата : 1
Параметр QPel формата : Нет
Параметр GMC формата : Без точки перехода
Параметр матрицы формата : Default (H.263)
Идентификатор кодека : XVID
Идентификатор кодека/Подсказка : XviD
Продолжительность : 50 м.
Битрейт : 1550 Кбит/сек
Ширина : 640 пикселей
Высота : 480 пикселей
Соотношение сторон : 4:3
Частота кадров : 25,000 кадров/сек
Цветовое пространство : YUV
Субдискретизация насыщенности : 4:2:0
Битовая глубина : 8 бит
Тип развёртки : Прогрессивная
Метод сжатия : С потерями
Бит/(Пиксели*Кадры) : 0.202
Размер потока : 556 Мбайт (92%)
Библиотека кодирования : XviD 64
Аудио
Идентификатор : 1
Формат : MPEG Audio
Версия формата : Version 1
Профиль формата : Layer 3
Режим : Joint stereo
Расширение режима : MS Stereo
Идентификатор кодека : 55
Идентификатор кодека/Подсказка : MP3
Продолжительность : 50 м.
Вид битрейта : Постоянный
Битрейт : 128 Кбит/сек
Каналы : 2 канала
Частота : 48,0 КГц
Метод сжатия : С потерями
Размер потока : 45,9 Мбайт (8%)
Выравнивание : Соединение по промежуткам
Продолжительность промежутка : 40 мс. (1,00 видеокадр)
Время предзагрузки промежутка : 504 мс.
Библиотека кодирования : LAME3.98r
Настройки программы : -m j -V 4 -q 2 -lowpass 17 -b 128
       

Деревянный дом с камином (эфир от 16.12.12) SATRip

Несмотря на то, что все семейство Герреро много лет прожили в Мексике, предпочтение в декоре они все-таки отдают спокойной европейской классике. Поэтому столовую, кухню и гостиную мы переделаем в духе итальянского дизайна 50-х годов прошлого столетия. А главной особенностью проекта станет оригинальное архитектурное решение – классическая уличная беседка прямо в центре помещения!

MediaInfo

Общее
Полное имя : E:\Films\Дачный ответ - 2012 (Мегапак)\39. Dachnii.otvet.16.12.12.XviD.SATRip.avi
Формат : AVI
Формат/Информация : Audio Video Interleave
Размер файла : 607 Мбайт
Продолжительность : 50 м.
Общий поток : 1687 Кбит/сек
Программа кодирования : VirtualDubMod 1.5.10.3 | (build 2550/release)
Библиотека кодирования : VirtualDubMod build 2550/release
Видео
Идентификатор : 0
Формат : MPEG-4 Visual
Профиль формата : Advanced [email protected]
Параметр BVOP формата : 1
Параметр QPel формата : Нет
Параметр GMC формата : Без точки перехода
Параметр матрицы формата : Default (H.263)
Идентификатор кодека : XVID
Идентификатор кодека/Подсказка : XviD
Продолжительность : 50 м.
Битрейт : 1549 Кбит/сек
Ширина : 640 пикселей
Высота : 480 пикселей
Соотношение сторон : 4:3
Частота кадров : 25,000 кадров/сек
Цветовое пространство : YUV
Субдискретизация насыщенности : 4:2:0
Битовая глубина : 8 бит
Тип развёртки : Прогрессивная
Метод сжатия : С потерями
Бит/(Пиксели*Кадры) : 0.202
Размер потока : 558 Мбайт (92%)
Библиотека кодирования : XviD 64
Аудио
Идентификатор : 1
Формат : MPEG Audio
Версия формата : Version 1
Профиль формата : Layer 3
Режим : Joint stereo
Расширение режима : MS Stereo
Идентификатор кодека : 55
Идентификатор кодека/Подсказка : MP3
Продолжительность : 50 м.
Вид битрейта : Постоянный
Битрейт : 128 Кбит/сек
Каналы : 2 канала
Частота : 48,0 КГц
Метод сжатия : С потерями
Размер потока : 46,1 Мбайт (8%)
Выравнивание : Соединение по промежуткам
Продолжительность промежутка : 40 мс. (1,00 видеокадр)
Время предзагрузки промежутка : 504 мс.
Библиотека кодирования : LAME3.98r
Настройки программы : -m j -V 4 -q 2 -lowpass 17 -b 128
       

Сладкая спальня для молодоженов (эфир от 23.12.12) SATRip

Команда дачного ответа поможет супругам обустроить спальню в загородном доме.
Комната расположена под самой крышей, в мансарде. Изюминкой проекта станет оформление одной и стен: она превратится в пчелиные соты! Янтарный оттенок и мягкость подсластят будни семейной пары.

MediaInfo

Общее
Полное имя : E:\Films\Дачный ответ - 2012 (Мегапак)\40. Dachnii.otvet.23.12.12.XviD.SATRip.avi
Формат : AVI
Формат/Информация : Audio Video Interleave
Размер файла : 591 Мбайт
Продолжительность : 50 м.
Общий поток : 1638 Кбит/сек
Библиотека кодирования : VirtualDub build 32842/release
Видео
Идентификатор : 0
Формат : MPEG-4 Visual
Профиль формата : Advanced [email protected]
Параметр BVOP формата : 2
Параметр QPel формата : Нет
Параметр GMC формата : Без точки перехода
Параметр матрицы формата : Default (H.263)
Режим смешивания : Сжатый битовый поток
Идентификатор кодека : XVID
Идентификатор кодека/Подсказка : XviD
Продолжительность : 50 м.
Битрейт : 1500 Кбит/сек
Ширина : 640 пикселей
Высота : 480 пикселей
Соотношение сторон : 4:3
Частота кадров : 25,000 кадров/сек
Цветовое пространство : YUV
Субдискретизация насыщенности : 4:2:0
Битовая глубина : 8 бит
Тип развёртки : Прогрессивная
Метод сжатия : С потерями
Бит/(Пиксели*Кадры) : 0.195
Размер потока : 541 Мбайт (92%)
Библиотека кодирования : XviD 64
Аудио
Идентификатор : 1
Формат : MPEG Audio
Версия формата : Version 1
Профиль формата : Layer 3
Режим : Joint stereo
Расширение режима : MS Stereo
Идентификатор кодека : 55
Идентификатор кодека/Подсказка : MP3
Продолжительность : 50 м.
Вид битрейта : Постоянный
Битрейт : 128 Кбит/сек
Каналы : 2 канала
Частота : 48,0 КГц
Метод сжатия : С потерями
Размер потока : 46,2 Мбайт (8%)
Выравнивание : Разделение по промежуткам
Продолжительность промежутка : 40 мс. (1,00 видеокадр)
Время предзагрузки промежутка : 500 мс.
       

Новогодняя «малая гостиная» (эфир от 31.12.2012) SATRip

В новогоднем выпуске команда «Дачного ответа» будет возрождать давно забытый тип комнат – «малые гостиные». Название это старинное, из
дворцово-усадебной жизни. В таких гостиных устраивались музыкальные вечера, разыгрывались пьесы и шарады, рисовались этюды…

MediaInfo

Общее
Полное имя : E:\Films\Дачный ответ - 2012 (Мегапак)\41. Dachnii.otvet.31.12.12.XviD.SATRip.avi
Формат : AVI
Формат/Информация : Audio Video Interleave
Размер файла : 602 Мбайт
Продолжительность : 49 м.
Общий поток : 1687 Кбит/сек
Программа кодирования : VirtualDubMod 1.5.10.3 | www.virtualdub-fr.org || (build 2550/release)
Библиотека кодирования : VirtualDubMod build 2550/release
Видео
Идентификатор : 0
Формат : MPEG-4 Visual
Профиль формата : Advanced [email protected]
Параметр BVOP формата : 1
Параметр QPel формата : Нет
Параметр GMC формата : Без точки перехода
Параметр матрицы формата : Default (H.263)
Идентификатор кодека : XVID
Идентификатор кодека/Подсказка : XviD
Продолжительность : 49 м.
Битрейт : 1549 Кбит/сек
Ширина : 640 пикселей
Высота : 480 пикселей
Соотношение сторон : 4:3
Частота кадров : 25,000 кадров/сек
Цветовое пространство : YUV
Субдискретизация насыщенности : 4:2:0
Битовая глубина : 8 бит
Тип развёртки : Прогрессивная
Метод сжатия : С потерями
Бит/(Пиксели*Кадры) : 0.202
Размер потока : 553 Мбайт (92%)
Библиотека кодирования : XviD 64
Аудио
Идентификатор : 1
Формат : MPEG Audio
Версия формата : Version 1
Профиль формата : Layer 3
Режим : Joint stereo
Расширение режима : MS Stereo
Идентификатор кодека : 55
Идентификатор кодека/Подсказка : MP3
Продолжительность : 49 м.
Вид битрейта : Постоянный
Битрейт : 128 Кбит/сек
Каналы : 2 канала
Частота : 48,0 КГц
Метод сжатия : С потерями
Размер потока : 45,7 Мбайт (8%)
Выравнивание : Соединение по промежуткам
Продолжительность промежутка : 40 мс. (1,00 видеокадр)
Время предзагрузки промежутка : 504 мс.
Библиотека кодирования : LAME3.98r
Настройки программы : -m j -V 4 -q 2 -lowpass 17 -b 128
       
Время раздачи: С 8:00 до 21:00
Other forum [Profile] [PM]
Display posts from previous:    
Reply to topic

The time now is: Today 18:42

All times are GMT + 3 Hours



You cannot post new topics in this forum
You cannot reply to topics in this forum
You cannot edit your posts in this forum
You cannot delete your posts in this forum
You cannot vote in polls in this forum
You cannot attach files in this forum
You cannot download files in this forum