Today is a free download without charge Download

Шаолиньский цигун | Ба Дуань Цзин – Восемь Кусков Парчи TS

Reply to topic
 
Author
Message

Omen ®

Longevity: 7 years 10 months

Posts: 181087

Торрент-статистика

Post 14-Jan-2013 21:01

[Quote]

-Шаолиньский цигун | Ба Дуань Цзин – Восемь Кусков Парчи TS- Автор (режиссер): Шаолиньский цигун
Название: Ба Дуань Цзин – Восемь Кусков Парчи
Год выпуска: -
Жанр: Оздоровительная гимнастика
Качество видео: TS
Продолжительность: 0:38:17
Видеокодек: DivX 3 Low
Битрейт видео: ~2432kb/s
Размер кадра: 384*288
Аудиокодек: MP3
Битрейт аудио: 48kb/s, 44,1kHz
Описание:
Восемь кусков парчи – идеальное повседневное упражнение для большинства людей. Особенно он рекомендуется для людей, которые работают на «сидячих» работах или за компьютерами. Если регулярно заниматься этим упражнением, то состояние ваших внутренних органов улучшится, а мышцы и сухожилия станут более сильными.

Главные особенности Ба Дуань Цзинь:

• эффективное поддержание формы
• простота изучения
• для занятий не требуется много времени.
Скриншоты:

MediaInfo

Общее
Полное имя : C:\Documents and Settings\Admin\Мои документы\Мои видеозаписи\Цигун\Шаолиньский Цигун.avi
Формат : AVI
Формат/Информация : Audio Video Interleave
Размер файла : 682 Мбайт
Продолжительность : 38 м.
Общий поток : 2489 Кбит/сек
Библиотека кодирования : VirtualDub build 16297/release
Видео
Идентификатор : 0
Формат : MPEG-4 Visual
Идентификатор кодека : DIV3
Идентификатор кодека/Подсказка : DivX 3 Low
Продолжительность : 38 м.
Битрейт : 2432 Кбит/сек
Ширина : 384 пикселя
Высота : 288 пикселей
Соотношение сторон : 4:3
Частота кадров : 24,000 кадра/сек
Цветовое пространство : YUV
Субдискретизация насыщенности : 4:2:0
Битовая глубина : 8 бит
Метод сжатия : С потерями
Бит/(Пиксели*Кадры) : 0.916
Размер потока : 666 Мбайт (98%)
Аудио
Идентификатор : 1
Формат : MPEG Audio
Версия формата : Version 1
Профиль формата : Layer 3
Идентификатор кодека : 55
Идентификатор кодека/Подсказка : MP3
Продолжительность : 38 м.
Вид битрейта : Постоянный
Битрейт : 48,0 Кбит/сек
Каналы : 1 канал
Частота : 44,1 КГц
Метод сжатия : С потерями
Размер потока : 13,1 Мбайт (2%)
Выравнивание : Разделение по промежуткам
Продолжительность промежутка : 42 мс. (1,00 видеокадр)
Время предзагрузки промежутка : 500 мс.
Время раздачи: По мере возможности
Other forum [Profile] [PM]
Display posts from previous:    
Reply to topic

The time now is: Today 14:44

All times are GMT + 3 Hours



You cannot post new topics in this forum
You cannot reply to topics in this forum
You cannot edit your posts in this forum
You cannot delete your posts in this forum
You cannot vote in polls in this forum
You cannot attach files in this forum
You cannot download files in this forum