Today is a free download without charge Download

Д.Попов-Толмачев | Тайцзи цюань. Бадуаньцзинь или "8 кусков парчи" [2008] DVDRip

Reply to topic
 
Author
Message

Omen ®

Longevity: 7 years 10 months

Posts: 181087

Торрент-статистика

Post 14-Jan-2013 21:01

[Quote]

-Д.Попов-Толмачев | Тайцзи цюань. Бадуаньцзинь или "8 кусков парчи" [2008] DVDRip- Автор (режиссер): Д.Попов-Толмачев
Название: Тайцзи цюань. Бадуаньцзинь или "8 кусков парчи"
Год выпуска: 2008
Жанр: Оздоровительная гимнастика
Качество видео: DVDRip
Продолжительность: 0:55:10
Видеокодек: xvid
Битрейт видео: ~195kb/s
Размер кадра: 320*240
Аудиокодек: MP3
Битрейт аудио: 64kb/s 22,05kHz
Описание:
«Бадуаньцзинь» или « 8 кусков парчи» один из древнейших и популярнейших комплексов цигун в тайцзи цюань. Доказано, что этот комплекс эффективен при профилактике многих хронических болезней, в том числе, помогает и при таких серьезных заболеваниях как диабет. Однако изначально этот комплекс предназначался для практикующих боевые искусства. Даже если вы не собираетесь заниматься боевыми искусствами, данный фильм поможет вам развить и укрепить свое тело.

Дополнительная информация:

ШКОЛА ТРАДИЦИОННЫХ КИТАЙСКИХ БОЕВЫХ ИСКУССТВ "ЗОЛОТОЙ ДРАКОН"
Режиссер - Д.Попов-Толмачев
Оператор - И. Поморин
Ведущий - В. Просвиров
Композитор - Д. Шаров
Продюсер - Т. Семенова
Обучающая программа без возрастных ограничений.
Скриншоты:

MediaInfo

Общее
Полное имя : C:\Documents and Settings\Admin\Мои документы\Мои видеозаписи\Цигун\Бадуаньцзинь или 8 кусков парчи.avi
Формат : AVI
Формат/Информация : Audio Video Interleave
Размер файла : 107 Мбайт
Продолжительность : 55 м.
Общий поток : 272 Кбит/сек
Программа кодирования : Lavf51.12.2
Видео
Идентификатор : 0
Формат : xvid
Идентификатор кодека : xvid
Продолжительность : 55 м.
Битрейт : 195 Кбит/сек
Ширина : 320 пикселей
Высота : 240 пикселей
Соотношение сторон : 4:3
Частота кадров : 25,000 кадров/сек
Бит/(Пиксели*Кадры) : 0.102
Размер потока : 77,1 Мбайт (72%)
Аудио
Идентификатор : 1
Формат : MPEG Audio
Версия формата : Version 2
Профиль формата : Layer 3
Режим : Joint stereo
Идентификатор кодека : 55
Идентификатор кодека/Подсказка : MP3
Продолжительность : 55 м.
Вид битрейта : Постоянный
Битрейт : 64,0 Кбит/сек
Каналы : 2 канала
Частота : 22,05 КГц
Метод сжатия : С потерями
Размер потока : 25,3 Мбайт (24%)
Выравнивание : Соединение по промежуткам
Продолжительность промежутка : 26 мс. (0,65 видеокадр)
Время предзагрузки промежутка : 26 мс.
Время раздачи: По мере возможности
Other forum [Profile] [PM]
Display posts from previous:    
Reply to topic

The time now is: Today 02:02

All times are GMT + 3 Hours



You cannot post new topics in this forum
You cannot reply to topics in this forum
You cannot edit your posts in this forum
You cannot delete your posts in this forum
You cannot vote in polls in this forum
You cannot attach files in this forum
You cannot download files in this forum