Today is a free download without charge Download

Денис Попов - Толмачев | Самооборона для начинающих. Приёмы и ситуации (2005) DVDRip

Reply to topic
 
Author
Message

Omen ®

Longevity: 7 years 10 months

Posts: 181087

Торрент-статистика

Post 14-Jan-2013 21:01

[Quote]

-Денис Попов - Толмачев | Самооборона для начинающих. Приёмы и ситуации (2005) DVDRip- Режиссер: Денис Попов - Толмачев
Русское название: Самооборона для начинающих. Приёмы и ситуации
Год выпуска: 2005
Производство: Россия, Эврика Фильм
Жанр: Самооборона, обучающее видео
Продолжительность: 00:52:24
Качество видео: DVDRip
Видеокодек: XviD
Битрейт видео: 1663 Кбит/сек
Размер кадра: 704x512
Аудио: Русский, АС3, 2 ch, 192 Кбит/с
Описание:Хоть раз в жизни каждый из нас сталкивался с хулиганами. На улице, в подъезде, в машине... И порой мы теряемся от неожиданности и неумения постоять за себя и ближних, и нас пугает грозный вид негодяев! А может быть стоит к ним присмотреться? Может быть, они и не такие уж грозные? Если, конечно, знать что делать!
Этот фильм поможет Вам стать увереннее в жизни и научиться защищать себя в различных жизненных ситуациях.

MediaInfo

Код:
Общее
Полное имя                               : F:\Раздачи\Раздачи Разное\Самооборона для начинающих. Приёмы и ситуации (2005) DVDRip.avi
Формат                                   : AVI
Формат/Информация                        : Audio Video Interleave
Размер файла                             : 699 Мбайт
Продолжительность                        : 52 м.
Общий поток                              : 1864 Кбит/сек
Программа кодирования                    : FairUse Wizard - http://fairusewizard.com
Библиотека кодирования                   : The best and REALLY easy backup tool
Видео
Идентификатор                            : 0
Формат                                   : MPEG-4 Visual
Профиль формата                          : Advanced [email protected]
Параметр BVOP формата                    : 1
Параметр QPel формата                    : Нет
Параметр GMC формата                     : Без точки перехода
Параметр матрицы формата                 : Default (H.263)
Режим смешивания                         : Сжатый битовый поток
Идентификатор кодека                     : XVID
Идентификатор кодека/Подсказка           : XviD
Продолжительность                        : 52 м.
Битрейт                                  : 1663 Кбит/сек
Ширина                                   : 704 пикселя
Высота                                   : 512 пикселей
Соотношение сторон                       : 1,375
Частота кадров                           : 25,000 кадров/сек
Цветовое пространство                    : YUV
Субдискретизация насыщенности            : 4:2:0
Битовая глубина                          : 8 бит
Тип развёртки                            : Прогрессивная
Метод сжатия                             : С потерями
Бит/(Пиксели*Кадры)                      : 0.185
Размер потока                            : 623 Мбайт (89%)
Библиотека кодирования                   : XviD 1.1.0 (UTC 2005-11-22)
Аудио
Идентификатор                            : 1
Формат                                   : AC-3
Формат/Информация                        : Audio Coding 3
Расширение режима                        : CM (complete main)
Параметр Endianness формата              : Big
Идентификатор кодека                     : 2000
Продолжительность                        : 52 м.
Вид битрейта                             : Постоянный
Битрейт                                  : 192 Кбит/сек
Каналы                                   : 2 канала
Расположение каналов                     : Front: L R
Частота                                  : 48,0 КГц
Битовая глубина                          : 16 бит
Метод сжатия                             : С потерями
Размер потока                            : 72,0 Мбайт (10%)
Выравнивание                             : Разделение по промежуткам
Продолжительность промежутка             : 40  мс. (1,00 видеокадр)
Время предзагрузки промежутка            : 500  мс.
Скриншоты:
         -Время раздачи: 9.00 - 23.00 (по мере возможности...)
Other forum [Profile] [PM]
Display posts from previous:    
Reply to topic

The time now is: Today 19:28

All times are GMT + 3 Hours



You cannot post new topics in this forum
You cannot reply to topics in this forum
You cannot edit your posts in this forum
You cannot delete your posts in this forum
You cannot vote in polls in this forum
You cannot attach files in this forum
You cannot download files in this forum