Today is a free download without charge Download

Tamako Market / Лавочка Тамако (2013, TV, 1 из 12+) HDTVRip 720p Rus

Reply to topic
 
Author
Message

Omen ®

Longevity: 7 years 11 months

Posts: 181087

Торрент-статистика

Post 14-Jan-2013 16:12

[Quote]

-たまこまーけっと / Tamako Market / Лавочка Тамако- Жанр: Комедия,Школа,Повседневность
Тип: TV-сериал
Количество серий: 1 из >12
Продолжительность: 25 мин
Дата премьеры / период выхода: 10 января 2013
Производство/студия: Kyoto Animation
Автор оригинала: Ёсида Рэйко
Режиссер: Ямада Наоко
Битрейт видео: ~1800 Кбит/сек
Размер кадра: 1280 * 720
Качество видео: HDTVRip
Аудио: AAC, 44,1 КГц, 128 Кбит/сек, 2 канала
Звук: Русский (поверх японского)
Озвучивание: Ancord & NikaLenina
Перевод на русский: FooBoo
Тайминг: Castle
Тип субтитров: Отсутствуют
Описание:
Торговый квартал Усагияма. В нем прямо напротив друг друга находятся 2 магазинчика продающие мочи. И по закону жанра оба их владельца - Каташиракава и Ооджи люто ненавидят друг друга.
Правда их детям Тамако Каташиракаве веселой и доброй девушке и Ооджи Мочизо робкому и жизнерадостному парню нет дел до их распрей, они живут своей школьной жизнью.
И по закону жанра Разумеется Ромео влюблен в Джу....эээ кхммм Мочизо влюблен в Тамако, но не может ей признаться из-за своей робкости.
И все бы было как обычно, если бы в один прекрасный день Тамако не нашла в цветочном магазине.....Говорящую птицу!!!!????

Эпизоды:

01. - Миленькая дочка продавца "Мочи"

MediaInfo:

Общее
Полное имя : D:\Upload\Tamako Market\Tamako Market - Лавочка Тамако 1 серия [Ancord & NikaLenina].mp4
Формат : MPEG-4
Профиль формата : Base Media
Идентификатор кодека : isom
Размер файла : 329 Мбайт
Продолжительность : 23 м.
Режим общего битрейта : Переменный
Общий поток : 1942 Кбит/сек
Программа кодирования : Lavf52.40.0
Видео
Идентификатор : 1
Формат : AVC
Формат/Информация : Advanced Video Codec
Профиль формата : [url=mailto:[email protected]][email protected][/url]
Параметр CABAC формата : Да
Параметр ReFrames формата : 3 кадра
Идентификатор кодека : avc1
Идентификатор кодека/Информация : Advanced Video Coding
Продолжительность : 23 м.
Битрейт : 1800 Кбит/сек
Ширина : 1280 пикселей
Высота : 720 пикселей
Соотношение сторон : 16:9
Режим частоты кадров : Переменный
Частота кадров : 23,976 кадра/сек
Частота кадров в оригинале : 25,000 кадров/сек
Минимальная частота кадров : 8,333 кадров/сек
Максимальная частота кадров : 25,000 кадров/сек
Цветовое пространство : YUV
Субдискретизация насыщенности : 4:2:0
Битовая глубина : 8 бит
Тип развёртки : Прогрессивная
Бит/(Пиксели*Кадры) : 0.081
Размер потока : 306 Мбайт (93%)
Библиотека кодирования : x264 core 79
Настройки программы : cabac=1 / ref=3 / deblock=1:0:0 / analyse=0x3:0x113 / me=hex / subme=7 / psy=1 / psy_rd=1.0:0.0 / mixed_ref=1 / me_range=16 / chroma_me=1 / trellis=1 / 8x8dct=1 / cqm=0 / deadzone=21,11 / chroma_qp_offset=-2 / threads=24 / nr=0 / decimate=1 / mbaff=0 / constrained_intra=0 / bframes=3 / b_pyramid=0 / b_adapt=1 / b_bias=0 / direct=1 / wpredb=32 / wpredp=2 / keyint=250 / keyint_min=25 / scenecut=40 / rc_lookahead=40 / rc=abr / mbtree=1 / bitrate=1800 / ratetol=2.2 / qcomp=0.60 / qpmin=10 / qpmax=51 / qpstep=4 / ip_ratio=1.41 / aq=1:1.00
Аудио
Идентификатор : 2
Формат : AAC
Формат/Информация : Advanced Audio Codec
Профиль формата : LC
Идентификатор кодека : 40
Продолжительность : 23 м.
Вид битрейта : Переменный
Битрейт : 128 Кбит/сек
Каналы : 2 канала
Расположение каналов : Front: L R
Частота : 44,1 КГц
Метод сжатия : С потерями
Задержка видео : 120 мс.
Размер потока : 21,7 Мбайт (7%)
Язык : Russian
Скриншоты:

Время раздачи: круглосуточно
Other forum [Profile] [PM]
Display posts from previous:    
Reply to topic

The time now is: Today 04:43

All times are GMT + 3 Hours



You cannot post new topics in this forum
You cannot reply to topics in this forum
You cannot edit your posts in this forum
You cannot delete your posts in this forum
You cannot vote in polls in this forum
You cannot attach files in this forum
You cannot download files in this forum