Today is a free download without charge Download

Pokemon Diamond and Pearl: Sinnoh League Victors / Покемоны Алмаз и жемчуг: Победители лиги Синно (13 сезон) [2010, TV, 1 из 34] DVDRip Rus(Дубляж)+ Eng [Обновляемая]

Reply to topic
 
Author
Message

Omen ®

Longevity: 7 years 11 months

Posts: 181087

Торрент-статистика

Post 14-Jan-2013 14:40

[Quote]

-Pokemon Diamond and Pearl: Sinnoh League Victors
Покемоны Алмаз и жемчуг: Победители лиги Синно
- Жанр: кодомо, комедия, приключения, фэнтези
Количество серий: 1 из 34
Продолжительность: 21 мин
Режиссер: Норихико Судё
Формат видео: MKV
Качество: DVDRip
Видео: XviD 704x396 29.97fps ~ 2000 kbps
Аудио 1: MP3 48000Hz stereo 192Kbps Язык Русский (в составе контейнера) ; Озвучка: Дубляж (SDI Media)
Аудио 2: MP3 48000Hz stereo 192Kbps Язык Английский ; Озвучка 2: Оригинал
Релиз группы: Timber Maniacs
Рип DVD. Итоговый муксинг: Slink
Захват звука для серий: HPotter, ALEKS KV
Сведение звука: NIIBACO
Описание:
Новое поколение. Новые игры. Новый регион. Новый сериал. Покемон описывает ещё один круг, и возвращается в начало. Алмаз-Жемчуг - третья инкарнация знаменитого на весь мир детского аниме.

Подробные тех. данные:

General
Format : Matroska
Format version : Version 1
File size : 376 MiB
Duration : 21mn 16s
Overall bit rate : 2 473 Kbps
Encoded date : UTC 2013-01-13 16:14:41
Writing application : mkvmerge v2.1.0 ('Another Place To Fall') built on Aug 19 2007 13:40:07
Writing library : libebml v0.7.7 + libmatroska v0.8.1
Video
ID : 1
Format : MPEG-4 Visual
Format profile : Advanced [email protected]
Format settings, BVOP : Yes
Format settings, QPel : No
Format settings, GMC : No warppoints
Format settings, Matrix : Default (H.263)
Codec ID : V_MS/VFW/FOURCC / XVID
Codec ID/Hint : XviD
Duration : 21mn 16s
Bit rate : 2 040 Kbps
Width : 704 pixels
Height : 396 pixels
Display aspect ratio : 16:9
Frame rate mode : Constant
Frame rate : 29.970 fps
Color space : YUV
Chroma subsampling : 4:2:0
Bit depth : 8 bits
Scan type : Progressive
Compression mode : Lossy
Bits/(Pixel*Frame) : 0.244
Stream size : 310 MiB (82%)
Title : Pokemon Diamond & Pearl 158 [by Timber Maniacs]
Writing library : XviD 1.2.1 (UTC 2008-12-04)
Language : English
Default : Yes
Forced : No
Audio #1
ID : 2
Format : MPEG Audio
Format version : Version 1
Format profile : Layer 3
Mode : Joint stereo
Mode extension : MS Stereo
Codec ID : A_MPEG/L3
Codec ID/Hint : MP3
Duration : 21mn 16s
Bit rate mode : Constant
Bit rate : 192 Kbps
Channel(s) : 2 channels
Sampling rate : 48.0 KHz
Compression mode : Lossy
Stream size : 29.2 MiB (8%)
Title : Pokemon Diamond & Pearl 158 [by Timber Maniacs] Russian
Writing library : LAME3.99.3
Language : Russian
Default : Yes
Forced : No
Audio #2
ID : 3
Format : MPEG Audio
Format version : Version 1
Format profile : Layer 3
Mode : Joint stereo
Codec ID : A_MPEG/L3
Codec ID/Hint : MP3
Duration : 21mn 16s
Bit rate mode : Constant
Bit rate : 192 Kbps
Channel(s) : 2 channels
Sampling rate : 48.0 KHz
Compression mode : Lossy
Stream size : 29.2 MiB (8%)
Title : Pokemon Diamond & Pearl 158 [by Timber Maniacs] English
Language : English
Default : No
Forced : No

Эпизоды:

01 Regaining the Home Advantage! / Возвращение домашнего преимущества!
-          -Время раздачи: До первых сидов
Other forum [Profile] [PM]
Display posts from previous:    
Reply to topic

The time now is: Today 16:42

All times are GMT + 3 Hours



You cannot post new topics in this forum
You cannot reply to topics in this forum
You cannot edit your posts in this forum
You cannot delete your posts in this forum
You cannot vote in polls in this forum
You cannot attach files in this forum
You cannot download files in this forum