Today is a free download without charge Download

Мент в законе-6 [Сергей Полянский] [1-6 серия из 12] (Детектив 2013) SATRip [Обновляемая]

Reply to topic
 
Author
Message

Витек1 ®

Gender:

Longevity: 8 years 9 months

Posts: 451

Location: Житомир

Торрент-статистика

Post 14-Jan-2013 12:37

[Quote]

Мент в законе-6 [1-6 серия из 12] - Русское название: Мент в законе-6
Производство: Россия
Год выпуска: 2013
Жанр: Детектив
Перевод: Не требуется (Русский)

Режиссер: Сергей Полянский, Евгений Сологалов
Актеры: Сергей Плотников (II), Антон Сёмкин, Михаил Бабичев, Константин Глушков, Рустам Эйвазов, Юлия Яблонская, Денис Кирис, Константин Гацалов, Даша Русакова, Роман Селецкий, Тарас Кияшко, Николай Ширяев, Александр Сергеев (IV), Кирилл Костырко, Даниил Кокин, Татьяна Косач-Брындина, Дарья Смирнова, Лада Чернова
Описание фильма:
В шестом сезоне в Битово происходит громкое экономическое преступление: заезжих бизнесменов «кинули» на 100 миллионов рублей. Дерзкого афериста разыскивают оперативники Кручи, бандиты Сафрона и сами «бизнесмены», оказавшиеся членами организованной преступной группировки. Также в этом сезоне Сафрон баллотируется в депутаты под лозунгом: «Я освобожу район Битово от преступности и от бездействия полиции». Борьба Кручи против преступности обостряется: масштабные грабежи и циничные убийства, борьба с работорговцами и квартирными аферистами, арест банды подростков из богатых семей, которые играют в карты человеческие жизни. Все это и многое другое с блеском расследуют Степан Круча и его оперативники в новом сезоне остросюжетного телесериала «Мент в законе-6
Продолжительность: 6 х ~ 00:42:09 серия
Качество видео: SATRip
Видеокодек: Xvid
Битрейт видео: ~1218 Kbit/s
Размер кадра: 704 x 384
Аудиокодек: MP3, 2.0
Битрейт аудио: 128 Kbit/sВнимание! Раздача ведётся путём добавления новых серий

Внимание! Раздача ведётся путём добавления новых серий. Описание обновления торрента.

Внимание! Раздача ведётся путём добавления новых серий; при каждом добавлении создётся новый торрент. Чтобы начать докачку новой серии, пользователям необходимо сделать следующее:
(1) остановить скачивание,
(2) удалить старый торрент у себя из клиента (старые серии удалять не надо),
(3) скачать новый торрент и запустить его у себя в клиенте вместо старого, при этом указать клиенту путь в старую папку куда и должно происходить скачивание новых серий.
Ваш клиент при этом должен произвести хеширование (проверку) старой папки (если не производит сам - помогите ему сделать это), и будет докачивать только те серии которых у вас ещё нет. Старые серии при этом не удаляются, а продолжают раздаваться!
Eсли вы уже удалили старые серии, то предотвратить повторную закачку старых серий можно, отжав галочку в соответсвующих местах при запуске нового торрента. По возможности, желательно не удалять старые серии как можно дольше чтобы релизёр не столько продолжал раздавать старые серии, а смог сконцентрироваться на новых.

MediaInfo

Общее
Полное имя : Мент в законе-6. 2013.SATRip\Мент в законе-6.01.avi
Формат : AVI
Формат/Информация : Audio Video Interleave
Профиль формата : OpenDML
Настройки формата : rec
Размер файла : 409 Мбайт
Продолжительность : 42 м.
Общий поток : 1355 Кбит/сек
Видео
Идентификатор : 0
Формат : MPEG-4 Visual
Профиль формата : Advanced [email protected]
Параметр BVOP формата : 2
Параметр QPel формата : Нет
Параметр GMC формата : Без точки перехода
Параметр матрицы формата : Default (MPEG)
Идентификатор кодека : XVID
Идентификатор кодека/Подсказка : XviD
Продолжительность : 42 м.
Битрейт : 1218 Кбит/сек
Ширина : 704 пикс.
Высота : 384 пикс.
Соотношение сторон : 16:9
Частота кадров : 25,000 кадр/сек
Цветовое пространство : YUV
Подвыборка цветности : 4:2:0
Битовая глубина : 8 бит
Тип развёртки : Прогрессивная
Метод сжатия : С потерями
Бит/(Пиксели*Кадры) : 0.180
Размер потока : 367 Мбайт (90%)
Библиотека кодирования : XviD 64
Аудио
Идентификатор : 1
Формат : MPEG Audio
Версия формата : Version 1
Профиль формата : Layer 3
Режим : Joint stereo
Расширение режима : MS Stereo
Идентификатор кодека : 55
Идентификатор кодека/Подсказка : MP3
Продолжительность : 42 м.
Вид битрейта : Постоянный
Битрейт : 128 Кбит/сек
Каналы : 2 канала
Частота : 48,0 КГц
Метод сжатия : С потерями
Размер потока : 38,6 Мбайт (9%)
Выравнивание : Соединение по промежуткам
Продолжительность промежутка : 24 мс. (0,60 видеокадр)
Время предзагрузки промежутка : 192 ms
Библиотека кодирования : LAME3.90.3

"Скриншоты"

           

_________________
Скачал сам, дай скачать другому!!!Не забудь сказать -
Other forum [Profile] [PM]

Dracula

Longevity: 7 years 11 months

Posts: 11028

Торрент-статистика

Post 14-Jan-2013 15:05 (after 2 hours 28 minutes)

Топик был перенесен из форума Фильмы 2013 (новинки) в форум Отечественные cериалы


DeadMmau5
 
Display posts from previous:    
Reply to topic

The time now is: Today 11:38

All times are GMT + 3 Hours



You cannot post new topics in this forum
You cannot reply to topics in this forum
You cannot edit your posts in this forum
You cannot delete your posts in this forum
You cannot vote in polls in this forum
You cannot attach files in this forum
You cannot download files in this forum