Today is a free download without charge Download

Защита Красина / Сезон: 1 Серии: 1-12 из 12 (Алексей Шикин) [2006, детектив, криминал, DVB]

Reply to topic
 
Author
Message

Omen ®

Longevity: 8 years 11 months

Posts: 181086

Торрент-статистика

Post 13-Jan-2013 22:04

[Quote]

Защита Красина
Год выпуска: 2006
Производство: Студия "Панорама"
Жанр: детектив, криминал
Продолжительность: ~0:45:00 серия
Субтитры: отсутствуют
Режиссёр: Алексей Шикин
В ролях: Юрий Архангельский, Сергей Цепов, Александр Большаков, Михаил Лучко, Игорь Николаев, Дмитрий Макеев, Евгений Шершень, Оксана Скачкова, Сергей Галич, Людмила Живых, Наталья Ткаченко, Борис Клюев, Евгений Иванов, Софья Горелик
Описание: Руководителю отдела по расследованию убийств подполковнику Олегу Красину представляют его нового заместителя, Виктора Сосновского, молодого человека с блестящим послужным списком и отличной биографией. Довольно скоро становится понятным, что с этим назначением не все так просто. Майор Сосновский, сын милицейского генерала, сам метит на должность своего начальника, а Красину тем временем поступает неожиданное предложение, которое тот, поначалу, расценивает как провокацию...
Релиз: -Сэмпл-Качество: DVB (ABS 1 at 75.0°E)
Формат: MPEG-PS
Видео кодек: MPEG2
Аудио кодек: MP2
Видео: MPEG 2, 720x576 (4:3), 25.000 fps, 5142 Kbps (0.496 bit/pixel)
Аудио: MP2, 48.0 KHz, 2 ch, 192 Kbps, CBR

MediaInfo

ОбщееПолное имя : L:\Раздачи\Защита Красина\Защита Красина.01.mpgФормат : MPEG-PSРазмер файла : 1,78 ГбайтПродолжительность : 46 м.Режим общего битрейта : ПеременныйОбщий поток : 5441 Кбит/секБиблиотека кодирования : (c) 1998-2012 Womble Multimedia, Inc. / MPEG Video Wizard DVD 5.0.1.100 (03/2011) / Sep 7 2012
ВидеоИдентификатор : 224 (0xE0)Формат : MPEG VideoВерсия формата : Version 2Профиль формата : [email protected]Параметр BVOP формата : ДаПараметр матрицы формата : ВыборочнаяПараметр GOP формата : VariableПродолжительность : 46 м.Вид битрейта : ПеременныйБитрейт : 5141 Кбит/секМаксимальный битрейт : 15,0 Мбит/секШирина : 720 пикселейВысота : 576 пикселейСоотношение сторон : 4:3Частота кадров : 25,000 кадров/секСтандарт вещания : PALЦветовое пространство : YUVСубдискретизация насыщенности : 4:2:0Битовая глубина : 8 битТип развёртки : ЧересстрочнаяПорядок развёртки : Верхнее поле первоеМетод сжатия : С потерямиБит/(Пиксели*Кадры) : 0.496Размер потока : 1,68 Гбайт (94%)Выравнивание : (c) 1998-2012 Womble Multimedia, Inc. / MPEG Video Wizard DVD 5.0.1.100 (03/2011) / Sep 7 2012Заголовок : (c) 1998-2012 Womble Multimedia, Inc. / MPEG Video Wizard DVD 5.0.1.100 (03/2011) / Sep 7 2012Библиотека кодирования : (c) 1998-2012 Womble Multimedia, Inc. / MPEG Video Wizard DVD 5.0.1.100 (03/2011) / Sep 7 2012
АудиоИдентификатор : 192 (0xC0)Формат : MPEG AudioВерсия формата : Version 1Профиль формата : Layer 2Продолжительность : 46 м.Вид битрейта : ПостоянныйБитрейт : 192 Кбит/секКаналы : 2 каналаЧастота : 48,0 КГцМетод сжатия : С потерямиРазмер потока : 64,1 Мбайт (4%)
Меню

Скриншоты


Other forum [Profile] [PM]
Similar theme
Forum Topic Author Torrent Replies Last Post
./templates/default/images/folder_dl.gif Компьютерная литература Столлингс В. - Криптография и защита сетей. Принципы и практика [2001, PDF, RUS] Omen
1 | 0

0 | 679

2

2015-05-04 03:09
Omen Latest
Display posts from previous:    
Reply to topic

The time now is: Today 09:36

All times are GMT + 3 Hours



You cannot post new topics in this forum
You cannot reply to topics in this forum
You cannot edit your posts in this forum
You cannot delete your posts in this forum
You cannot vote in polls in this forum
You cannot attach files in this forum
You cannot download files in this forum