Today is a free download without charge Download

Метод Фрейда / Сезон: 1 / Серии: 1-8 из 12 (Михаил Вайнберг) [2013, Психологический детектив, WEB-DL 1080p/ HDTVRip, 1080p]

Reply to topic
 
Author
Message

Omen ®

Longevity: 8 years 11 months

Posts: 181086

Торрент-статистика

Post 13-Jan-2013 22:04

[Quote]

Метод Фрейда
Год выпуска: 2013
Производство: Россия, STAR MEDIA
Жанр: Психологический детектив
Продолжительность: 12х55минут
Режиссёр: Михаил Вайнберг
Продюсер: Влад Ряшин, Дарья Лаврова
Сценарист: Алексей Красовский, Андрей Галанов, Владимир Дьяченко
Оператор: Сергей Бледнов
Художник: Григор Тер-Месропян
В Главных ролях:
Иван Охлобыстин,
Наталия Антонова,
Елена Николаева,
Павел Прилучный,
Артур Ваха,
Алексей Гришин
В ролях: Александр Кузнецов, Наталья Рычкова, Алла Подчуфарова, Маргарита Быстрякова, Яна Чигир, Анна Каменкова, Денис Старков, Азамат Нигманов, Александр Воробьёв, Вячеслав Яковлев, Виктор Маркин, Юрий Борисов...
Описание: В следственный отдел прокуратуры введен специальный консультант Роман Фрейдин, психолог и профессиональный игрок в покер. В молодости Фрейдин объездил всю Россию и Европу — общался с людьми самых разных профессий — от квалифицированных психоаналитиков до народных колдунов и гадалок, от признанных ученых до карточных игроков с сомнительной репутацией.
В расследовании преступлений Фрейдин опирается на интуицию, использует научные методики, воссоздает биокинетические картины событий, психофизические портреты преступников и прогнозирует действия бандитов. Но базовым моментом для Романа является психология. Его метод – метод Фрейда - заключается в прямой провокации подозреваемых. Более того – этот метод он использует и в общении со своими новыми коллегами, чем вызывает неоднозначные реакции с их стороны. Тем не менее, сотрудники прокуратуры признают, что им достался великолепный консультант. Ведь, несмотря на некоторую странность поведения и экстравагантные приемы расследования, Фрейду с помощью удивительной интуиции и блестящей логики, удается раскрыть самые сложные и запутанные дела.
Доп. информация: Легальный видеоконтент без логотипов, реклам, 16+ и прочего телевизионного мусора...
В конце серий после тиров идут 1-2 минуты чёрного экрана, которые в файле занимают максимум 500кб, поэтому и обрезать не стал, все равно титры до конца никто не читает)
Сэмпл: http://multi-up.com/816212
Качество: WEB-DL 1080p/ HDTVRip, 1080p (Источник неизвестен)
Формат: MKV
Видео кодек: H.264
Аудио кодек: AC3
Видео:
MPEG4 Video (H264) 1920x1078 25fps 4000 Кбит/сек[Video] - 8 серия
MPEG4 Video (H264) 1920x1080 25fps 4000 Кбит/сек [Video] - 1,3,4,5,7 серии
MPEG4 Video (H264) 1920x1082 25fps 4000 Кбит/сек [Video] - 2,6 серии
Аудио: Dolby AC3 48000Hz 384 Кбит/сек 6ch [Audio]

MI

Код:
Общее
Уникальный идентификатор                 : 321992895418248871686840354678212909662 (0xF23D936F451E147631A84530288FDA5E)
Полное имя                               : E:\Сериалы\Метод Фрейда\Метод Фрейда h264 1080p\1 сезон\01.mkv
Формат                                   : Matroska
Версия формата                           : Version 2
Размер файла                             : 1,65 Гбайт
Продолжительность                        : 53 м.
Общий поток                              : 4387 Кбит/сек
Программа кодирования                    : Lavf54.22.104
Библиотека кодирования                   : Lavf54.22.104
MOOVPOSITION                             : 36
AUDIOCHANNELS                            : 2
VIDEOFRAMERATE                           : 25
AACAOT                                   : 2
AVCLEVEL                                 : 40
AVCPROFILE                               : 100
FRAMEWIDTH                               : 1920
FRAMEHEIGHT                              : 1080
DISPLAYWIDTH                             : 1920
DISPLAYHEIGHT                            : 1080
Видео
Идентификатор                            : 1
Формат                                   : AVC
Формат/Информация                        : Advanced Video Codec
Профиль формата                          : [email protected]
Параметр CABAC формата                   : Да
Параметр ReFrames формата                : 3 кадра
Идентификатор кодека                     : V_MPEG4/ISO/AVC
Продолжительность                        : 53 м.
Битрейт                                  : 4000 Кбит/сек
Ширина                                   : 1920 пикселей
Высота                                   : 1080 пикселей
Соотношение сторон                       : 16:9
Режим частоты кадров                     : Постоянный
Частота кадров                           : 25,000 кадров/сек
Цветовое пространство                    : YUV
Субдискретизация насыщенности            : 4:2:0
Битовая глубина                          : 8 бит
Тип развёртки                            : Прогрессивная
Бит/(Пиксели*Кадры)                      : 0.077
Размер потока                            : 1,47 Гбайт (89%)
Библиотека кодирования                   : x264 core 120
Настройки программы                      : cabac=1 / ref=3 / deblock=1:0:0 / analyse=0x3:0x133 / me=umh / subme=7 / psy=1 / psy_rd=1.00:0.00 / mixed_ref=1 / me_range=32 / chroma_me=1 / trellis=2 / 8x8dct=1 / cqm=0 / deadzone=21,11 / fast_pskip=1 / chroma_qp_offset=-2 / threads=12 / sliced_threads=0 / nr=0 / decimate=1 / interlaced=0 / bluray_compat=0 / constrained_intra=0 / bframes=0 / weightp=0 / keyint=75 / keyint_min=26 / scenecut=40 / intra_refresh=0 / rc_lookahead=50 / rc=2pass / mbtree=0 / bitrate=4000 / ratetol=1.0 / qcomp=0.20 / qpmin=10 / qpmax=51 / qpstep=4 / cplxblur=20.0 / qblur=0.5 / vbv_maxrate=5000 / vbv_bufsize=5000 / nal_hrd=none / ip_ratio=1.40 / aq=1:1.00
Default                                  : Да
Forced                                   : Нет
Основные цвета                           : BT.709
Характеристики трансфера                 : BT.709
Коэффициенты матрицы                     : BT.709
Аудио
Идентификатор                            : 2
Формат                                   : AC-3
Формат/Информация                        : Audio Coding 3
Расширение режима                        : CM (complete main)
Параметр Endianness формата              : Big
Идентификатор кодека                     : A_AC3
Продолжительность                        : 53 м.
Вид битрейта                             : Постоянный
Битрейт                                  : 384 Кбит/сек
Каналы                                   : 6 каналов
Расположение каналов                     : Front: L C R, Side: L R, LFE
Частота                                  : 48,0 КГц
Битовая глубина                          : 16 бит
Метод сжатия                             : С потерями
Размер потока                            : 148 Мбайт (9%)
Default                                  : Да
Forced                                   : Нет

Скриншоты








Раздача ведётся путём добавления новых серии, следующие серии на следующей неделе.

Инструкция

Внимание! Раздача ведётся путём добавления новых выпусков; при каждом добавлении создётся новый торрент. Чтобы начать докачку нового выпуска, пользователям необходимо сделать следующее:
(1) остановить скачивание,
(2) удалить старый торрент у себя из клиента (старые выпуски удалять не надо),
(3) скачать новый торрент и запустить его у себя в клиенте вместо старого, при этом указать клиенту путь в старую папку куда и должно происходить скачивание новых выпусков.
Ваш клиент при этом должен произвести хеширование (проверку) старой папки (если не производит сам - помогите ему сделать это), и будет докачивать только те выпуски которых у вас ещё нет. Старые выпуски при этом не удаляются, а продолжают раздаваться!
Eсли вы уже удалили старые выпуски, то предотвратить повторную закачку старых выпусков можно, отжав галочку в соответсвующих местах при запуске нового торрента. По возможности, желательно не удалять старые выпуски как можно дольше чтобы релизёр не столько продолжал раздавать старые выпуски, а смог сконцентрироваться на новых.
Other forum [Profile] [PM]
Display posts from previous:    
Reply to topic

The time now is: Today 19:49

All times are GMT + 3 Hours



You cannot post new topics in this forum
You cannot reply to topics in this forum
You cannot edit your posts in this forum
You cannot delete your posts in this forum
You cannot vote in polls in this forum
You cannot attach files in this forum
You cannot download files in this forum