Today is a free download without charge Download

Сваты 3 / Серии: 1-7 из 12 (Андрей Яковлев, Эдуард Радзюкевич) [2009, Комедия, HDTVRip, 720p]

Reply to topic
 
Author
Message

Omen ®

Longevity: 8 years 11 months

Posts: 181086

Торрент-статистика

Post 13-Jan-2013 22:04

[Quote]

Сваты 3
Год выпуска: 2009
Производство: Киевфильм, 95 квартал
Жанр: Комедия
Продолжительность: ~ 00:50:00
Субтитры: нет
Режиссёр: Андрей Яковлев, Эдуард Радзюкевич
В ролях: Людмила Артемьева, Анатолий Васильев (II), Татьяна Кравченко, Фёдор Добронравов, Николай Добрынин, Александр Игнатуша, София Стеценко, Семен Фурман, Маргарита Шубина, Даниил Белых, Дмитрий Оскин, Дмитрий Сова, Оксана Коляденко, Анатолий Барчук, Валентина Ильяшенко, Жанна Богдевич, Ольга Гришина, Светлана Прус, Виктория Авдеенко, Константин Данилюк, Максим Никитин, Александр Ярема, Григорий Боковенко, Борис Георгиевский, Олег Треповский, Александр Невзоров (II)
Описание: Семейные пары Будько (типичных сельских жителей) и Ковалевых (городских интеллигентов) объединяет только одно - любовь к внучке Женечке! Ради нее они готовы терпеть все! Даже присутствие друг друга!
Молодые родители Женечки - Маша и Максим, уехав в Голландию, оставили в поселке дочку на попечение Будько. Ковалевы приезжают помочь присмотреть за любимой внучкой, а заодно подготовить ее к поступлению в лицей! Так под одной крышей оказываются две семьи - городская и деревенская...
Доп. информация: Спасибо HDclub за предоставленный исходник!
Сэмпл: http://multi-up.com/816231
Качество: HDTVRip 720p
Формат: MKV
Видео кодек: H.264
Аудио кодек: AC3
Видео: AVC at 3132 Кбит/сек, 1280 x 716 (1.788) at 25.000 fps
Аудио: AC-3 at 192 Кбит/сек, 2 канала, 48,0 КГц

x264 log

avs4x264.exe: -L x264_64.exe --crf 18.0 --preset slower --tune film --profile high --level 4.0 --aq-mode 2 --deblock -2:-2 --merange 24 --bframes 8 --direct spatial --vbv-maxrate 20000 --vbv-bufsize 25000 --partitions p8x8,b8x8,i8x8,i4x4 --no-mbtree --min-keyint 25 --colorprim bt709 --transfer bt709 --colormatrix bt709 --sar 1:1 --output "E:\Temp\0324.264" "E:\Temp\0324.avs"
raw [info]: 1280x716p 1:1 @ 25/1 fps (cfr)
x264 [info]: using SAR=1/1
x264 [info]: using cpu capabilities: MMX2 SSE2Fast SSSE3 FastShuffle SSE4.1 Cache64
x264 [info]: profile High, level 4.0
x264 [info]: frame I:448 Avg QP:16.32 size:111911
x264 [info]: frame P:19510 Avg QP:17.87 size: 33100
x264 [info]: frame B:52117 Avg QP:20.47 size: 8757
x264 [info]: consecutive B-frames: 3.0% 4.0% 10.6% 60.3% 12.0% 8.7% 0.8% 0.4% 0.1%
x264 [info]: mb I I16..4: 4.2% 75.2% 20.6%
x264 [info]: mb P I16..4: 1.0% 9.2% 1.7% P16..4: 39.4% 24.6% 14.5% 0.0% 0.0% skip: 9.8%
x264 [info]: mb B I16..4: 0.1% 1.0% 0.2% B16..8: 33.2% 8.2% 2.3% direct: 4.9% skip:50.0% L0:31.6% L1:49.8% BI:18.6%
x264 [info]: 8x8 transform intra:76.8% inter:50.7%
x264 [info]: coded y,uvDC,uvAC intra: 85.7% 86.7% 60.9% inter: 18.1% 21.3% 2.5%
x264 [info]: i16 v,h,dc,p: 33% 16% 5% 46%
x264 [info]: i8 v,h,dc,ddl,ddr,vr,hd,vl,hu: 18% 15% 7% 6% 9% 11% 10% 11% 12%
x264 [info]: i4 v,h,dc,ddl,ddr,vr,hd,vl,hu: 17% 12% 3% 7% 13% 14% 12% 10% 11%
x264 [info]: i8c dc,h,v,p: 33% 25% 25% 17%
x264 [info]: Weighted P-Frames: Y:0.6% UV:0.4%
x264 [info]: ref P L0: 60.7% 12.2% 15.6% 3.0% 3.0% 1.9% 2.0% 1.3% 0.2% 0.0%
x264 [info]: ref B L0: 88.2% 8.0% 1.7% 0.9% 0.6% 0.4% 0.2%
x264 [info]: ref B L1: 96.6% 3.4%
x264 [info]: kb/s:3197.45
x264 [total]: encoded 72075 frames, 6.70 fps, 3197.45 kb/s

MI

Общее
Уникальный идентификатор : 230289365587107957054554234890777767336 (0xAD401E5665A81774B77BC8EA6927ADA8)
Полное имя : E:\kodirovany\СВАТЫ-3.HDTVRip.720p.Doc66\Сваты-3.01.HDTVRip.720p.Doc66.mkv
Формат : Matroska
Версия формата : Version 2
Размер файла : 1,14 Гбайт
Продолжительность : 48 м.
Общий поток : 3391 Кбит/сек
Дата кодирования : UTC 2013-01-10 09:01:55
Программа кодирования : mkvmerge v5.8.0 ('No Sleep / Pillow') built on Sep 2 2012 15:37:04
Библиотека кодирования : libebml v1.2.3 + libmatroska v1.3.0
Видео
Идентификатор : 1
Формат : AVC
Формат/Информация : Advanced Video Codec
Профиль формата : [email protected]
Параметр CABAC формата : Да
Параметр ReFrames формата : 8 кадров
Идентификатор кодека : V_MPEG4/ISO/AVC
Продолжительность : 48 м.
Битрейт : 3132 Кбит/сек
Ширина : 1280 пикселей
Высота : 716 пикселей
Соотношение сторон : 16:9
Режим частоты кадров : Постоянный
Частота кадров : 25,000 кадров/сек
Цветовое пространство : YUV
Субдискретизация насыщенности : 4:2:0
Битовая глубина : 8 бит
Тип развёртки : Прогрессивная
Бит/(Пиксели*Кадры) : 0.137
Размер потока : 1,05 Гбайт (92%)
Библиотека кодирования : x264 core 125 r2208 d9d2288
Настройки программы : cabac=1 / ref=8 / deblock=1:-2:-2 / analyse=0x3:0x113 / me=umh / subme=9 / psy=1 / psy_rd=1.00:0.15 / mixed_ref=1 / me_range=24 / chroma_me=1 / trellis=2 / 8x8dct=1 / cqm=0 / deadzone=21,11 / fast_pskip=1 / chroma_qp_offset=-3 / threads=6 / lookahead_threads=1 / sliced_threads=0 / nr=0 / decimate=1 / interlaced=0 / bluray_compat=0 / constrained_intra=0 / bframes=8 / b_pyramid=2 / b_adapt=2 / b_bias=0 / direct=1 / weightb=1 / open_gop=0 / weightp=2 / keyint=250 / keyint_min=25 / scenecut=40 / intra_refresh=0 / rc_lookahead=60 / rc=crf / mbtree=0 / crf=18.0 / qcomp=0.60 / qpmin=0 / qpmax=69 / qpstep=4 / vbv_maxrate=20000 / vbv_bufsize=25000 / crf_max=0.0 / nal_hrd=none / ip_ratio=1.40 / pb_ratio=1.30 / aq=2:1.00
Default : Да
Forced : Нет
Основные цвета : BT.709
Характеристики трансфера : BT.709
Коэффициенты матрицы : BT.709
Аудио
Идентификатор : 2
Формат : AC-3
Формат/Информация : Audio Coding 3
Расширение режима : CM (complete main)
Параметр Endianness формата : Big
Идентификатор кодека : A_AC3
Продолжительность : 48 м.
Вид битрейта : Постоянный
Битрейт : 192 Кбит/сек
Каналы : 2 канала
Расположение каналов : Front: L R
Частота : 48,0 КГц
Битовая глубина : 16 бит
Метод сжатия : С потерями
Размер потока : 66,0 Мбайт (6%)
Default : Да
Forced : Нет

Скриншоты

К среде, 16.01 закончим
Other forum [Profile] [PM]
Display posts from previous:    
Reply to topic

The time now is: Today 10:02

All times are GMT + 3 Hours



You cannot post new topics in this forum
You cannot reply to topics in this forum
You cannot edit your posts in this forum
You cannot delete your posts in this forum
You cannot vote in polls in this forum
You cannot attach files in this forum
You cannot download files in this forum