Today is a free download without charge Download

Zumba® Fitness - ZIN Zumba GOLD [2012 г., фитнес, DVDRip, MP3, ENG] (Видеоуроки)

Reply to topic
 
Author
Message

Omen ®

Longevity: 7 years 10 months

Posts: 181087

Торрент-статистика

Post 13-Jan-2013 22:04

[Quote]

ZIN Zumba Gold
The Dance Party Workout for the Young at Heart
Год выпуска: 2012
Страна: США
Жанр: Фитнес
Язык: Английский
Перевод: Отсутствует
Продолжительность видео: 01:13:32
Продолжительность CD: 00:58:50 (MP3, tracks, 192 kbps)
-Описание: Zumba Fitness® не похожа ни на одну известную Вам фитнес программу!
Она была разработана в середине 90-х колумбийцем Альберто «Бето» Пересом – популярным фитнес инструктором и хореографом многих поп-звезд. Вдохновленный волнующими ритмами кумбии, салсы, самбы и меренги, знакомыми ему с детства, Бето соединил их с танцевальными элементами других культур, вернее, он отобрал те из них, которые более всего нравились его клиентам. Так родилась Zumba Fitness® («веселье в движении» на испанском сленге). В 1999 Бето привез Zumba Fitness® в США, где она сразу стала одной из самых популярных фитнес программ. Заразительные ритмы и простые движения Zumba, а главное ее невероятная эффективность покорили людей всех возрастов. Теперь и у Вас есть возможность насладиться всем этим, где бы вы не находились, благодаря нашей эксклюзивной DVD коллекции. Чего же Вы ждете! Попробуйте Zumba сегодня!
С этой, состоящей из зажигательных танцевальных па, пульсирующих латиноамериканских мелодий и набора простых упражнений фитнес «вечеринкой» Вы и сами не заметите, как начнете двигаться, наслаждаться жизнью и сбрасывать лишний вес, полностью растворившись в экзотических ритмах салсы, кумбии, меренги и многого другого! Измените свое тело полностью с Zumba® fitness, этим неподражаемым курсом тренировок. Ознакомившись с азами, Вы сможете сразу сконцентрироваться на самых важных элементах фигуры – прессе и бедрах. Пришло время заняться собой!
Тем более теперь, когда и возраст - не помеха для наслаждения движением! Zumba Fitness разработала направление для тех, чье сердце всегда молодо! И, конечно, - часть Zumba Instructor Network (ZIN) серии (как и для всех других направлений зумбы).
-Качество: DVDRip
Формат: AVI
Видео: 720x400 (1.80:1), 23.976 fps, XviD build 65 ~1519 kbps avg, 0.22 bit/pixel
Аудио: 48 kHz, AC3 Dolby Digital, 2/0 (L,R) ch, ~192 kbps

Скриншоты видео


-

Отчет MI видео

GeneralComplete name : ZIN.Zumba.Gold.Review.Choreography\ZIN Fundamentals_01 Zumba Gold Class.aviFormat : AVIFormat/Info : Audio Video InterleaveFile size : 675 MiBDuration : 54mn 50sOverall bit rate : 1 721 KbpsMovie name : ZIN Fundamentals_01 Zumba Gold ClassWriting application : FairUse Wizard
VideoID : 0Format : MPEG-4 VisualFormat profile : Advanced [email protected] settings, BVOP : YesFormat settings, QPel : NoFormat settings, GMC : No warppointsFormat settings, Matrix : CustomCodec ID : XVIDCodec ID/Hint : XviDDuration : 54mn 50sBit rate : 1 519 KbpsWidth : 720 pixelsHeight : 400 pixelsDisplay aspect ratio : 16:9Frame rate : 23.976 fpsColor space : YUVChroma subsampling : 4:2:0Bit depth : 8 bitsScan type : ProgressiveBits/(Pixel*Frame) : 0.220Stream size : 596 MiB (88%)Writing library : XviD 65
AudioID : 1Format : AC-3Format/Info : Audio Coding 3Mode extension : CM (complete main)Codec ID : 2000Duration : 54mn 50sBit rate mode : ConstantBit rate : 192 KbpsChannel(s) : 2 channelsChannel positions : Front: L RSampling rate : 48.0 KHzBit depth : 16 bitsStream size : 75.3 MiB (11%)Alignment : Split accross interleavesInterleave, duration : 42 ms (1.00 video frame)Interleave, preload duration : 500 ms

MI Music CD


GeneralComplete name : Zumba Gold Music CD\01 - Tres Vueltas (Warm Up).mp3Format : MPEG AudioFile size : 6.66 MiBDuration : 4mn 51sOverall bit rate : 192 KbpsAlbum : Zumba GoldTrack name : 01 - Tres Vueltas (Warm Up)Track name/Position : 1Track name/Total : 12Performer : Zumba GoldGenre : FitnessWriting library : iTunes 8.0.2
AudioFormat : MPEG AudioFormat version : Version 1Format profile : Layer 3Duration : 4mn 51sBit rate mode : ConstantBit rate : 192 KbpsChannel(s) : 2 channelsSampling rate : 44.1 KHzStream size : 6.66 MiB (100%)
Other forum [Profile] [PM]
Display posts from previous:    
Reply to topic

The time now is: Today 03:15

All times are GMT + 3 Hours



You cannot post new topics in this forum
You cannot reply to topics in this forum
You cannot edit your posts in this forum
You cannot delete your posts in this forum
You cannot vote in polls in this forum
You cannot attach files in this forum
You cannot download files in this forum