Today is a free download without charge Download

Бродяга Кэнсин / Ruroni Kenshin: Meiji kenkaku roman tan [Кейдзи Отомо] (Драма, Исторический 2012) [1080p] BDRip

Reply to topic
 
Author
Message

Витек1 ®

Gender:

Longevity: 8 years 3 months

Posts: 451

Location: Житомир

Торрент-статистика

Post 13-Jan-2013 20:34

[Quote]

Бродяга Кэнсин / Ruroni Kenshin: Meiji kenkaku roman tan - Русское название: Бродяга Кэнсин
Оригинальное название: Ruroni Kenshin: Meiji kenkaku roman tan
Год выпуска: 2012
Страна: Япония
Жанр: Драма, Исторический-Описание фильма:
Бывший легендарный убийца Кэнсин Химура стал скитальцем самураем, предлагающим помощь и защиту нуждающимся, чтобы искупить свои прошлые поступки. Во время своих скитаний Кэнсин столкнется с Каору Камией. Ее отец открыл школу кэндо в Токио и Каору работает там инструктором. Отношения Кэнсина и Каору начинают развиваться, но Кэнсина по-прежнему преследует его ужасное прошлое…-Режиссер: Кейдзи Отомо
Актеры: Аои Ю, Теруюки Кагава, Йосуке Егучи, Такеру Сато, Еми Такей, Мунэтака Аоки, Кёдзи Киккава, Танака Такэто-Продолжительность: 02:14:26
Перевод: Двуголосый закадровый, любительский
Автор перевода: фансаб-группы "Альянс"
Озвучивание: Ворон и Трина Дубовицкая
Язык субтитров: Русские, английские
Вид субтитров: Вшитые (отключаемые)

Дата мировой премьеры: 25 августа 2012-Видеокодек: MPEG-4 AVC/H.264
Битрейт видео: ~10,5 Мбит/с
Размер кадра: 1920x804
Качество видео: BDRip
Аудио#1: Русский (AC3, 6 ch, 448 Кбит/с)
Аудио#2: Японский (AC3, 6 ch, 640 Кбит/с)

MediaInfo

Общее
Уникальный идентификатор : 218423685178711088126322424176489381839 (0xA452DF203047E8F5AD7EF2CC2BDDBFCF)
Полное имя : Rurouni.Kenshin.2012.BDRip.1080p.[Rus.Jap.2xSub].mkv
Формат : Matroska
Версия формата : Version 2
Размер файла : 10,9 Гбайт
Продолжительность : 2 ч. 14 м.
Общий поток : 11,6 Мбит/сек
Дата кодирования : UTC 2013-01-08 05:30:23
Программа кодирования : mkvmerge v5.8.0 ('No Sleep / Pillow') built on Sep 2 2012 15:37:04
Библиотека кодирования : libebml v1.2.3 + libmatroska v1.3.0
Видео
Идентификатор : 1
Формат : AVC
Формат/Информация : Advanced Video Codec
Профиль формата : [url=mailto:[email protected]][email protected][/url]
Параметр CABAC формата : Да
Параметр ReFrames формата : 5 кадров
Идентификатор кодека : V_MPEG4/ISO/AVC
Битрейт : 10,5 Мбит/сек
Ширина : 1920 пикселей
Высота : 804 пикселя
Соотношение сторон : 2,40:1
Режим частоты кадров : Переменный
Частота кадров в оригинале : 23,976 кадра/сек
Цветовое пространство : YUV
Субдискретизация насыщенности : 4:2:0
Битовая глубина : 8 бит
Тип развёртки : Прогрессивная
Бит/(Пиксели*Кадры) : 0.285
Библиотека кодирования : x264 core 125 r2208 d9d2288
Настройки программы : cabac=1 / ref=5 / deblock=1:-3:-3 / analyse=0x3:0x113 / me=tesa / subme=11 / psy=1 / psy_rd=1.05:0.10 / mixed_ref=1 / me_range=48 / chroma_me=1 / trellis=2 / 8x8dct=1 / cqm=2 / deadzone=21,11 / fast_pskip=0 / chroma_qp_offset=-2 / threads=12 / lookahead_threads=2 / sliced_threads=0 / nr=0 / decimate=1 / interlaced=0 / bluray_compat=0 / constrained_intra=0 / bframes=8 / b_pyramid=2 / b_adapt=2 / b_bias=0 / direct=3 / weightb=1 / open_gop=0 / weightp=2 / keyint=250 / keyint_min=23 / scenecut=40 / intra_refresh=0 / rc_lookahead=60 / rc=2pass / mbtree=0 / bitrate=10536 / ratetol=2.0 / qcomp=0.70 / qpmin=1 / qpmax=63 / qpstep=4 / cplxblur=20.0 / qblur=0.5 / vbv_maxrate=40000 / vbv_bufsize=30000 / nal_hrd=none / ip_ratio=1.40 / pb_ratio=1.30 / aq=2:0.90
Язык : Japanese
Default : Да
Forced : Нет
Основные цвета : BT.709
Характеристики трансфера : BT.709
Коэффициенты матрицы : BT.709
Аудио #1
Идентификатор : 2
Формат : AC-3
Формат/Информация : Audio Coding 3
Расширение режима : CM (complete main)
Параметр Endianness формата : Big
Идентификатор кодека : A_AC3
Продолжительность : 2 ч. 14 м.
Вид битрейта : Постоянный
Битрейт : 448 Кбит/сек
Каналы : 6 каналов
Расположение каналов : Front: L C R, Side: L R, LFE
Частота : 48,0 КГц
Битовая глубина : 16 бит
Метод сжатия : С потерями
Размер потока : 431 Мбайт (4%)
Заголовок : DVO Ворон и Трина Дубовицкая
Язык : Russian
Default : Нет
Forced : Нет
Аудио #2
Идентификатор : 3
Формат : AC-3
Формат/Информация : Audio Coding 3
Расширение режима : CM (complete main)
Параметр Endianness формата : Big
Идентификатор кодека : A_AC3
Продолжительность : 2 ч. 14 м.
Вид битрейта : Постоянный
Битрейт : 640 Кбит/сек
Каналы : 6 каналов
Расположение каналов : Front: L C R, Side: L R, LFE
Частота : 48,0 КГц
Битовая глубина : 16 бит
Метод сжатия : С потерями
Размер потока : 615 Мбайт (6%)
Язык : Japanese
Default : Да
Forced : Нет
Текст #1
Идентификатор : 4
Формат : UTF-8
Идентификатор кодека : S_TEXT/UTF8
Идентификатор кодека/Информация : UTF-8 Plain Text
Заголовок : Фансаб-группа "АЛЬЯНС"
Язык : Russian
Default : Да
Forced : Нет
Текст #2
Идентификатор : 5
Формат : UTF-8
Идентификатор кодека : S_TEXT/UTF8
Идентификатор кодека/Информация : UTF-8 Plain Text
Язык : English
Default : Нет
Forced : Нет

"Скриншоты"

                   

_________________
Скачал сам, дай скачать другому!!!Не забудь сказать -
Other forum [Profile] [PM]

Dracula

Longevity: 7 years 5 months

Posts: 11216

Торрент-статистика

Post 13-Jan-2013 23:27 (after 2 hours 53 minutes)

Топик был перенесен из форума Фильмы 2012 в форум Новинки (DVD, HD Video)


sassad
 
Display posts from previous:    
Reply to topic

The time now is: Today 09:55

All times are GMT + 3 Hours



You cannot post new topics in this forum
You cannot reply to topics in this forum
You cannot edit your posts in this forum
You cannot delete your posts in this forum
You cannot vote in polls in this forum
You cannot attach files in this forum
You cannot download files in this forum