Today is a free download without charge Download

Ассасины / Убийцы / Tong que tai [Чжао Линшан] (Драма, Исторический 2012) [720p] BDRip

Reply to topic
 
Author
Message

Витек1 ®

Gender:

Longevity: 8 years 3 months

Posts: 451

Location: Житомир

Торрент-статистика

Post 13-Jan-2013 19:57

[Quote]

Ассасины / Убийцы / Tong que tai - Русское название: Убийцы / Ассасины
Оригинальное название: Tong que tai
Выпущено: Китай
Год выпуска: 2012
Жанр: Драма, Исторический
Режиссер: Чжао Линшан
Актеры: Чоу Юн-Фат, Яу Самчи, Алек Су, Яо Лу, Лиу Ифей
Описание фильма:
Лин Цзю (Лиу Ифей) и Му Шун (Тамаки Хироши) были еще детьми, когда их пленили какие-то люди, со временем превратившие их в профессиональных убийц. Спустя годы их выпускают в большой мир с единственной целью – убить самого могущественного человека в Китае, Цао Цао (Чоу Юн-Фат). Лин Цзю становится его наложницей, а Му Шун, превращенный в евнуха, оказывается при дворе номинального императора (Алек Су), который на деле ничего не решает. Но даже находясь рядом с ним, убить Цао Цао не так-то просто.
Продолжительность: 01:47:07
Перевод:Одноголосый закадровый [den904]
- -Качество видео: BDRip
Видеокодек: MPEG-4 AVC Video
Аудиокодек: AC-3
Bидео: 1280x536 at 23.976 fps, ~7000 kb/s
Аудио# 1: Русский: AC-3, 2/0 ch, ~ 128 kb/s |Одноголосый, den904|
Аудио# 2: Китайский: AC-3, 3/2 ch, ~ 384 kb/s

Субтитры:Английские-

MediaInfo:

Формат : Matroska
Версия формата : Version 2
Размер файла : 5,60 Гбайт
Продолжительность : 1 ч. 47 м.
Общий поток : 7485 Кбит/сек
Название фильма : UnionGang.tv
Дата кодирования : UTC 2013-01-10 17:21:06
Программа кодирования : mkvmerge v5.3.0 ('I could have danced') built on Feb 9 2012 10:38:07
Библиотека кодирования : libebml v1.2.3 + libmatroska v1.3.0
Видео
Идентификатор : 1
Формат : AVC
Формат/Информация : Advanced Video Codec
Профиль формата : [url=mailto:[email protected]][email protected][/url]
Параметр CABAC формата : Да
Параметр ReFrames формата : 12 кадров
Идентификатор кодека : V_MPEG4/ISO/AVC
Продолжительность : 1 ч. 47 м.
Битрейт : 7000 Кбит/сек
Ширина : 1280 пикселей
Высота : 536 пикселей
Соотношение сторон : 2,40:1
Режим частоты кадров : Постоянный
Частота кадров : 24,000 кадра/сек
Цветовое пространство : YUV
Субдискретизация насыщенности : 4:2:0
Битовая глубина : 8 бит
Тип развёртки : Прогрессивная
Бит/(Пиксели*Кадры) : 0.425
Размер потока : 5,11 Гбайт (91%)
Заголовок : The Assassins 2012
Библиотека кодирования : x264 core 129 r2230 1cffe9f
Настройки программы : cabac=1 / ref=12 / deblock=1:-3:-3 / analyse=0x3:0x113 / me=umh / subme=11 / psy=1 / psy_rd=1.05:0.10 / mixed_ref=1 / me_range=48 / chroma_me=1 / trellis=2 / 8x8dct=1 / cqm=0 / deadzone=21,11 / fast_pskip=0 / chroma_qp_offset=-2 / threads=12 / lookahead_threads=2 / sliced_threads=0 / nr=0 / decimate=1 / interlaced=0 / bluray_compat=0 / constrained_intra=0 / bframes=7 / b_pyramid=2 / b_adapt=2 / b_bias=0 / direct=3 / weightb=1 / open_gop=0 / weightp=2 / keyint=250 / keyint_min=24 / scenecut=40 / intra_refresh=0 / rc_lookahead=40 / rc=2pass / mbtree=0 / bitrate=7000 / ratetol=1.0 / qcomp=0.70 / qpmin=0 / qpmax=69 / qpstep=4 / cplxblur=20.0 / qblur=0.5 / vbv_maxrate=40000 / vbv_bufsize=30000 / nal_hrd=none / ip_ratio=1.40 / pb_ratio=1.30 / aq=2:1.00
Язык : Chinese
Default : Да
Forced : Нет
Аудио #1
Идентификатор : 2
Формат : AC-3
Формат/Информация : Audio Coding 3
Расширение режима : CM (complete main)
Параметр Endianness формата : Big
Идентификатор кодека : A_AC3
Продолжительность : 1 ч. 47 м.
Вид битрейта : Постоянный
Битрейт : 384 Кбит/сек
Каналы : 2 канала
Расположение каналов : Front: L R
Частота : 48,0 КГц
Битовая глубина : 16 бит
Метод сжатия : С потерями
Размер потока : 294 Мбайт (5%)
Заголовок : Cantonese AC3 5.1 640Kbps
Язык : Chinese
Default : Нет
Forced : Нет
Аудио #2
Идентификатор : 3
Формат : MPEG Audio
Версия формата : Version 1
Профиль формата : Layer 3
Режим : Joint stereo
Расширение режима : MS Stereo
Идентификатор кодека : A_MPEG/L3
Идентификатор кодека/Подсказка : MP3
Продолжительность : 1 ч. 47 м.
Вид битрейта : Постоянный
Битрейт : 128 Кбит/сек
Каналы : 2 канала
Частота : 48,0 КГц
Метод сжатия : С потерями
Размер потока : 98,1 Мбайт (2%)
Заголовок : L1
Язык : Russian
Default : Да
Forced : Да
Текст
Идентификатор : 4
Формат : UTF-8
Идентификатор кодека : S_TEXT/UTF8
Идентификатор кодека/Информация : UTF-8 Plain Text
Язык : English
Default : Нет
Forced : Нет

"Скриншоты"

         

_________________
Скачал сам, дай скачать другому!!!Не забудь сказать -
Other forum [Profile] [PM]

Dracula

Longevity: 7 years 6 months

Posts: 11225

Торрент-статистика

Post 13-Jan-2013 23:28 (after 3 hours)

Топик был перенесен из форума Фильмы 2012 в форум Зарубежное кино (HD Video)


sassad
 
Display posts from previous:    
Reply to topic

The time now is: Today 10:33

All times are GMT + 3 Hours



You cannot post new topics in this forum
You cannot reply to topics in this forum
You cannot edit your posts in this forum
You cannot delete your posts in this forum
You cannot vote in polls in this forum
You cannot attach files in this forum
You cannot download files in this forum