Today is a free download without charge Download

Возвращение на базу / Взвейся в небо / R2B: Return 2 Base / Soar Into The Sun [Донг-вон Ким / Dong-won Kim] (2012, Боевик, драма) [1080p] BDRip

Reply to topic
 
Author
Message

Витек1 ®

Gender:

Longevity: 8 years 3 months

Posts: 451

Location: Житомир

Торрент-статистика

Post 13-Jan-2013 14:40

[Quote]

Возвращение на базу / Взвейся в небо / R2B: Return 2 Base / Soar Into The Sun - Русское название: Возвращение на базу / Взвейся в небо
Оригинальное название: R2B: Return 2 Base / Soar Into The Sun
Год выпуска: 2012
Производство: Южная Корея
Жанр: Боевик, драма
Перевод: Двуголосый закадровый, любительский
Озвучка / Автор перевода: Виктор Ерёменко и Ольга Гринтиева
Субтитры: Вшитые отключаемые
Язык субтитров: Русские, китайские, английские
Дата мировой премьеры: 15.08.2012
Режиссер: Донг-вон Ким / Dong-won Kim
Актеры: Рэйн (Ниндзя-Убийца), Joon-sang Yoo, Сюн-Су Ким, Ха-на Ли, Ли Чжон-Сок, Чон Сок Вон, Bong-gi Baek, Soo-ho Ha, Kyeong-hoon Jeong, Се Гён Син.
Описание фильма:
Летчик-истребитель Чжон Тэ-Хун, служащий в элитном отряде ВВС «Черный Орел», совершил дерзкий поступок, сорвав авиа-шоу. Что он сделал? Всего ничего, чтобы доказать свое мастерство управления истребителем, парень выполнил фигуру высшего пилотажа, которую никто ранее до него не мог исполнить. Все это обрушило на Тэ-Хуна большие неприятности и угрозу увольнения. После этого летчик был вынужден перевестись в авиаотряд F15K, лучшим пилотом которого является Ли Чхоль-Хи.
Тэ-Хун — свободолюбивый летчик, любящий нарушать всевозможные правила и не терпящий над собой давления, а Чхоль-Хи, наоборот, любит следовать всевозможным правилам. Так что конфликт между двумя такими противоположными, но сильными личностями неизбежен. Было решено, что для разрешения конфликта, будут устроены гонки на истребителях, на которых Тэ-Хун прежде не летал.
Парень выбирает себе помощника в виде Ю Се-Ён, девушку-механика, которая является лучшим специалистом в службе технической поддержки. Однажды, неизвестный северокорейский боевой самолет появляется в небе над Сеулом и по тревоге о воздушном нападении был поднят отряд Тэ-Хуна. Им удалось защитить население и предотвратить трагедию, но, при этом они столкнулись с более серьезной проблемой — во время операции один из пилотов Чжи Сок-Хён оказался на враждебной территории. У отряда есть всего 7 минут на то, чтобы завершить беспрецедентную тайную операцию…

Продолжительность: 01:54:56
Качество видео: BDRip 1080p
Видеокодек: MPEG-4 AVC/H.264
Битрейт видео: ~10,2 мбит/сек
Размер кадра: 1920х804
Аудио 1: AC3 5.1 / 48 kHz / 640 kbps / 16-bit - Rus - DVO GREEN TEA
Аудио 2: AC3 5.1 / 48 kHz / 640 kbps / 16-bit - Korean

MediaInfo:

Общее
Уникальный идентификатор : 234361602386475420649173746360639649911 (0xB050671CEC19D9DC9BD162CDA0F57877)
Полное имя : D:\Video\Soar.Into.The.Sun.BDRip.2012.h264.ac3.Rus.Kor.mkv
Формат : Matroska
Версия формата : Version 2
Размер файла : 9,23 Гбайт
Продолжительность : 1 ч. 54 м.
Общий поток : 11,5 Мбит/сек
Дата кодирования : UTC 2012-12-29 11:23:14
Программа кодирования : mkvmerge v3.2.0 ('Beginnings') built on Feb 12 2010 16:46:17
Библиотека кодирования : libebml v0.7.9 + libmatroska v0.8.1
Видео
Идентификатор : 1
Формат : AVC
Формат/Информация : Advanced Video Codec
Профиль формата : [url=mailto:[email protected]][email protected]
Параметр CABAC формата : Да
Параметр ReFrames формата : 5 кадров
Идентификатор кодека : V_MPEG4/ISO/AVC
Продолжительность : 1 ч. 54 м.
Битрейт : 10,2 Мбит/сек
Ширина : 1920 пикселей
Высота : 804 пикселя
Соотношение сторон : 2,40:1
Частота кадров : 24,000 кадра/сек
Цветовое пространство : YUV
Субдискретизация насыщенности : 4:2:0
Битовая глубина : 8 бит
Тип развёртки : Прогрессивная
Бит/(Пиксели*Кадры) : 0.275
Размер потока : 8,02 Гбайт (87%)
Заголовок : Soar Into The Sun [2012]
Библиотека кодирования : x264 core 125 r2208 d9d2288
Настройки программы : cabac=1 / ref=5 / deblock=1:-3:-3 / analyse=0x3:0x113 / me=umh / subme=10 / psy=1 / psy_rd=1.00:0.05 / mixed_ref=1 / me_range=32 / chroma_me=1 / trellis=2 / 8x8dct=1 / cqm=0 / deadzone=21,11 / fast_pskip=0 / chroma_qp_offset=-2 / threads=8 / lookahead_threads=1 / sliced_threads=0 / nr=0 / decimate=1 / interlaced=0 / bluray_compat=0 / constrained_intra=0 / bframes=4 / b_pyramid=2 / b_adapt=2 / b_bias=0 / direct=3 / weightb=1 / open_gop=0 / weightp=2 / keyint=250 / keyint_min=24 / scenecut=40 / intra_refresh=0 / rc=2pass / mbtree=0 / bitrate=10202 / ratetol=1.0 / qcomp=0.70 / qpmin=0 / qpmax=69 / qpstep=4 / cplxblur=20.0 / qblur=0.5 / ip_ratio=1.40 / pb_ratio=1.30 / aq=2:1.00
Язык : Korean
Default : Да
Forced : Да
Аудио #1
Идентификатор : 2
Формат : AC-3
Формат/Информация : Audio Coding 3
Расширение режима : CM (complete main)
Идентификатор кодека : A_AC3
Продолжительность : 1 ч. 54 м.
Вид битрейта : Постоянный
Битрейт : 640 Кбит/сек
Каналы : 6 каналов
Расположение каналов : Front: L C R, Side: L R, LFE
Частота : 48,0 КГц
Битовая глубина : 16 бит
Метод сжатия : С потерями
Размер потока : 526 Мбайт (6%)
Заголовок : AC3 5.1 640 Kbps - DVO GREEN TEA
Язык : Russian
Default : Да
Forced : Да
Аудио #2
Идентификатор : 3
Формат : AC-3
Формат/Информация : Audio Coding 3
Расширение режима : CM (complete main)
Идентификатор кодека : A_AC3
Продолжительность : 1 ч. 54 м.
Вид битрейта : Постоянный
Битрейт : 640 Кбит/сек
Каналы : 6 каналов
Расположение каналов : Front: L C R, Side: L R, LFE
Частота : 48,0 КГц
Битовая глубина : 16 бит
Метод сжатия : С потерями
Размер потока : 526 Мбайт (6%)
Заголовок : AC3 5.1 640 Kbps
Язык : Korean
Default : Нет
Forced : Нет
Текст #1
Идентификатор : 4
Формат : UTF-8
Идентификатор кодека : S_TEXT/UTF8
Идентификатор кодека/Информация : UTF-8 Plain Text
Язык : Russian
Default : Да
Forced : Да
Текст #2
Идентификатор : 5
Формат : PGS
Идентификатор кодека : S_HDMV/PGS
Идентификатор кодека/Информация : The same subtitle format used on BDs/HD-DVDs
Заголовок : CHT
Язык : Chinese
Default : Нет
Forced : Нет
Текст #3
Идентификатор : 6
Формат : PGS
Идентификатор кодека : S_HDMV/PGS
Идентификатор кодека/Информация : The same subtitle format used on BDs/HD-DVDs
Заголовок : ENG
Язык : English
Default : Нет
Forced : Нет

"Скриншоты"

       

_________________
Скачал сам, дай скачать другому!!!Не забудь сказать -


Last edited by Витек1 on 2013-01-13 15:13; edited 1 time in total
Other forum [Profile] [PM]

DeadMmau5

Gender:

Longevity: 8 years 6 months

Posts: 155

Location: Поскот

Торрент-статистика

Post 13-Jan-2013 14:55 (after 15 minutes)

[Quote]

Витек1, Уберите год с названия , и приведите шапку в нормальное состояние!

_________________
Other forum [Profile] [PM]
Display posts from previous:    
Reply to topic

The time now is: Today 09:36

All times are GMT + 3 Hours



You cannot post new topics in this forum
You cannot reply to topics in this forum
You cannot edit your posts in this forum
You cannot delete your posts in this forum
You cannot vote in polls in this forum
You cannot attach files in this forum
You cannot download files in this forum