Сегодня идет свободное скачивание без начисления Download

В моей смерти прошу винить Клаву К. (Н.Лебедев, Э.Ясан) [1979 г., мелодрама, DVD5]

Ответить на тему
 
Автор
Сообщение

Omen ®

Стаж: 5 лет 10 месяцев

Сообщений: 184329

Торрент-статистика

Пост 13-Янв-2013 10:40

[Цитировать]

-В моей смерти прошу винить Клаву К- Русское название: В моей смерти прошу винить Клаву К
Год выпуска: 1979
Жанр: Драма, Мелодрама
Описание фильма:
Когда Сереже было всего четыре года, он влюбился по-настоящему, серьезно и на всю жизнь. Избранницей его сердца стала девочка Клава. С самого детства Сережа, как мог, ухаживал за своей возлюбленной: дарил ей все свои фломастеры, мелки, угощал мороженым в кафе, во время болезни приходил проведывать, всячески поддерживал в трудных ситуациях и ни разу не посмотрел на другую девочку. И вот в пятнадцать лет Клава влюбилась…. Но не в Сергея…. И тогда безнадежно влюбленный парень решил покончить жизнь самоубийством…
Режиссер: Николай Лебедев, Эрнест Ясан
Актеры: Ольга Волкова, Александр Анисимов, Олег Ефремов, Владимир Шевельков, Надежда Горшкова, Лариса Удовиченко, Вениамин Смехов, Любовь Малиновская, Ольга Озерецковская, Любовь Тищенко, Андрей Мусатов, Наталья Журавлева, Антон Гранат, Елена Хопшоносова, Максим Ясан, Виктор Костецкий, Владимир Сидоров, Любовь Полищук, Валентина Панина
Продолжительность: 01:11:26

Видеокодек: MPEG-2
Битрейт видео: ~7988 Кбит/сек
Размер кадра: 800x600 (4:3)PAL
Качество видео: DVD5
Аудиокодек: AC3
Битрейт аудио: 256 Кбит/сек

MediaInfo

Формат : MPEG-PS
Размер файла : 953 Мбайт
Продолжительность : 15 м.
Режим общего битрейта : Переменный
Общий поток : 8412 Кбит/сек
Видео
Идентификатор : 224 (0xE0)
Формат : MPEG Video
Версия формата : Version 2
Профиль формата : [email protected]
Параметр BVOP формата : Да
Параметр матрицы формата : Выборочная
Параметр GOP формата : M=3, N=12
Продолжительность : 15 м.
Вид битрейта : Переменный
Битрейт : 7988 Кбит/сек
Максимальный битрейт : 8216 Кбит/сек
Ширина : 720 пикселей
Высота : 576 пикселей
Соотношение сторон : 4:3
Частота кадров : 25,000 кадров/сек
Стандарт вещания : PAL
Цветовое пространство : YUV
Субдискретизация насыщенности : 4:2:0
Битовая глубина : 8 бит
Тип развёртки : Чересстрочная
Порядок развёртки : Верхнее поле первое
Метод сжатия : С потерями
Бит/(Пиксели*Кадры) : 0.770
Размер потока : 905 Мбайт (95%)
Основные цвета : BT.470-2 System B, BT.470-2 System G
Характеристики трансфера : BT.470-2 System B, BT.470-2 System G
Коэффициенты матрицы : BT.470-2 System B, BT.470-2 System G
Аудио
Идентификатор : 189 (0xBD)-128 (0x80)
Формат : AC-3
Формат/Информация : Audio Coding 3
Расширение режима : CM (complete main)
Режим смешивания : DVD-Video
Продолжительность : 15 м.
Вид битрейта : Постоянный
Битрейт : 256 Кбит/сек
Каналы : 2 канала
Расположение каналов : Front: L R
Частота : 48,0 КГц
Битовая глубина : 16 бит
Метод сжатия : С потерями
Задержка видео : -240 мс.
Размер потока : 29,0 Мбайт (3%)

DVDInfo

Title: В моей смерти прошу винить Клаву К
Size: 4.28 Gb ( 4 482 838,00 KBytes ) - DVD-5
Enabled regions: 1, 2, 3, 4, 5, 6, 7, 8
VTS_01 :
Play Length: 01:11:26
Video: PAL 4:3 (720x576) VBR
Audio:
Russian (Dolby AC3, 2 ch)
Скриншоты:
       
Вне форума [Профиль] [ЛС]
Показать сообщения:    
Ответить на тему

Текущее время: Сегодня 04:00

Часовой пояс: GMT + 3



Вы не можете начинать темы
Вы не можете отвечать на сообщения
Вы не можете редактировать свои сообщения
Вы не можете удалять свои сообщения
Вы не можете голосовать в опросах
Вы не можете прикреплять файлы к сообщениям
Вы не можете скачивать файлы