Сегодня идет свободное скачивание без начисления Download

Экипаж (1979) DVD5

Ответить на тему
 
Автор
Сообщение

Omen ®

Стаж: 6 лет

Сообщений: 184329

Торрент-статистика

Пост 13-Янв-2013 10:40

[Цитировать]

-Экипаж (1979) DVD5 (2 серии из 2)- Полная реставрация изображения и звука
Русское название: Экипаж
Год выпуска: 1979
Жанр: Драма, Триллер, Боевик
Описание фильма:
Экипаж самолета, перевозящего грузы и пассажиров, попадает в ситуацию, по сравнению, с которой конец света может показаться детской забавой… В аэропорту, в котором приземлился самолет, землетрясение. Извергается огненная лава, земля уходит из под ног, все вокруг горит и рушится, людей охватывает ужас, возникает паника.
После прибытия самолета происходит огромной силы новый толчок. Взлетная полоса повреждена. Но благодаря опыту и мужеству экипажа самолет удается поднять в воздух. Кажется, что пришло спасение, что самое страшное осталось на земле. Однако выясняется, что при взлете самолет получил массу повреждений, и одно из них слишком опасно, чтобы самолет смог благополучно приземлиться…
Режиссер: Александр Митта
Актеры: Георгий Жженов, Анатолий Васильев, Леонид Филатов, Александра Яковлева, Ирина Акулова, Екатерина Васильева, Юрий Горобец, Комаки Курихара, Александр Павлов, Галина Гладкова
Продолжительность: 02:15:35

Видеокодек: MPEG-2
Битрейт видео: ~4441kb/s
Размер кадра: PAL 4:3 (720x576) VBR
Качество видео: DVD5
Аудиокодек: AC3 5.1
Битрейт аудио: 448kb/s VBR

Дополнительных материалов и субтитров: нет

DVDInfo

Title: Локальный диск
Size: 4.28 Gb ( 4 483 370 KBytes ) - DVD-5
Enabled regions: 1, 2, 3, 4, 5, 6, 7, 8
VTS_01 :
Play Length:
Video: PAL 4:3 (720x576) VBR
VTS_02 :
Play Length: 01:19:04
Video: PAL 4:3 (720x576) VBR
Audio:
Russian (Dolby AC3, 6 ch)
VTS_03 :
Play Length: 00:56:30
Video: PAL 4:3 (720x576) VBR
Audio:
Russian (Dolby AC3, 6 ch)
VTS_04 :
Play Length:
Video: PAL 4:3 (720x576) VBR
Audio:
Russian (Dolby AC3, 2 ch)
VTS_05 :
Play Length:
Video: PAL 4:3 (720x576) VBR
Audio:
Russian (Dolby AC3, 2 ch)

MediaInfo

Общее
Полное имя : D:\Фильмы\Ekipach\VIDEO_TS\VTS_02_1.VOB
Формат : MPEG-PS
Размер файла : 1024 Мбайт
Продолжительность : 28 м.
Режим общего битрейта : Переменный
Общий поток : 4988 Кбит/сек
Видео
Идентификатор : 224 (0xE0)
Формат : MPEG Video
Версия формата : Version 2
Профиль формата : [email protected]
Параметр BVOP формата : Да
Параметр матрицы формата : Выборочная
Продолжительность : 28 м.
Вид битрейта : Переменный
Битрейт : 4441 Кбит/сек
Максимальный битрейт : 5817 Кбит/сек
Ширина : 720 пикселей
Высота : 576 пикселей
Соотношение сторон : 4:3
Частота кадров : 25,000 кадров/сек
Стандарт вещания : PAL
Цветовое пространство : YUV
Субдискретизация насыщенности : 4:2:0
Битовая глубина : 8 бит
Тип развёртки : Чересстрочная
Порядок развёртки : Верхнее поле первое
Метод сжатия : С потерями
Бит/(Пиксели*Кадры) : 0.428
Размер потока : 912 Мбайт (89%)
Аудио
Идентификатор : 189 (0xBD)-128 (0x80)
Формат : AC-3
Формат/Информация : Audio Coding 3
Расширение режима : CM (complete main)
Режим смешивания : DVD-Video
Продолжительность : 28 м.
Вид битрейта : Постоянный
Битрейт : 448 Кбит/сек
Каналы : 6 каналов
Расположение каналов : Front: L C R, Side: L R, LFE
Частота : 48,0 КГц
Битовая глубина : 16 бит
Метод сжатия : С потерями
Размер потока : 91,9 Мбайт (9%)
Меню
Скриншоты:
       
       

Еще скриншоты:

       
       
 
Время раздачи: С 15:00 до 23:30
Вне форума [Профиль] [ЛС]
Показать сообщения:    
Ответить на тему

Текущее время: Сегодня 22:43

Часовой пояс: GMT + 3



Вы не можете начинать темы
Вы не можете отвечать на сообщения
Вы не можете редактировать свои сообщения
Вы не можете удалять свои сообщения
Вы не можете голосовать в опросах
Вы не можете прикреплять файлы к сообщениям
Вы не можете скачивать файлы