Сегодня идет свободное скачивание без начисления Download

Александр Невский (1938) DVD9

Ответить на тему
 
Автор
Сообщение

Omen ®

Стаж: 5 лет 10 месяцев

Сообщений: 184329

Торрент-статистика

Пост 13-Янв-2013 10:40

[Цитировать]

-Александр Невский (1938) DVD9(Мосфильм, переиздание - Ruscico)- Русское название: Александр Невский
Год выпуска: 1938
Жанр: Исторический, Драма, Боевик
Описание фильма:
На западные рубежи Руси наступают войска Тевтонского Ордена. Они захватывают Псков, мучают и убивают местных жителей. Рыцари заранее делят ещё не завоеванные русские земли, присваивая себе титулы князей и надеясь на поддержку Папы Римского. Новгородский люд на вече решает собирать дружину и звать на командование ей опытного полководца князя Александра, прозванного Невским. Двое богатырей — Гаврила Алексич и Васька Буслаев (реальные личности) — сватаются к одной девице, и она решает, что выберет того, кто лучше покажет себя в битве.
Войска сходятся к берегам замёрзшего Чудского озера. Перед боем один дружинник рассказывает князю басню о лисице, застрявшей в развилке дерева, куда её заманил заяц. Александр поступает похожим образом: строит свои войска клещами, в то время как «кабан» тевтонцев наступает прямо по центру. Русичи окружают врага, зажимают в «тиски» и разбивают его. Бросившиеся в бегство немцы тонут, проламывая тяжелыми доспехами лёд. Предводители агрессоров попадают в плен…
Режиссер: С. Эйзенштейн, Д. Васильев
Актеры: Николай Черкасов, Андрей Абрикосов, Дмитрий Орлов, Николай Охлопков, Варвара Массалитинова, Владимир Ершов, Сергей Блинников, Иван Лагутин, Лев Фенин, Наум Рогожин, Василий Новиков, Вера Ивашова, Александра Данилова, Николай Арский

Media Info

Общее
Полное имя : D:\Кино\Александр Невский (1938)\VIDEO_TS\VTS_03_3.VOB
Формат : MPEG-PS
Размер файла : 1024 Мбайт
Продолжительность : 25 м.
Режим общего битрейта : Переменный
Общий поток : 5525 Кбит/сек
Видео
Идентификатор : 224 (0xE0)
Формат : MPEG Video
Версия формата : Version 2
Профиль формата : [email protected]
Параметр BVOP формата : Да
Параметр матрицы формата : Выборочная
Продолжительность : 25 м.
Вид битрейта : Переменный
Битрейт : 5223 Кбит/сек
Максимальный битрейт : 6000 Кбит/сек
Ширина : 720 пикселей
Высота : 576 пикселей
Соотношение сторон : 4:3
Частота кадров : 25,000 кадров/сек
Стандарт вещания : PAL
Цветовое пространство : YUV
Субдискретизация насыщенности : 4:2:0
Битовая глубина : 8 бит
Тип развёртки : Чересстрочная
Порядок развёртки : Верхнее поле первое
Метод сжатия : С потерями
Бит/(Пиксели*Кадры) : 0.504
Размер потока : 968 Мбайт (95%)
Аудио
Идентификатор : 189 (0xBD)-128 (0x80)
Формат : AC-3
Формат/Информация : Audio Coding 3
Расширение режима : CM (complete main)
Параметр Endianness формата : Big
Режим смешивания : DVD-Video
Продолжительность : 25 м.
Вид битрейта : Постоянный
Битрейт : 192 Кбит/сек
Каналы : 2 канала
Расположение каналов : Front: L R
Частота : 48,0 КГц
Битовая глубина : 16 бит
Метод сжатия : С потерями
Задержка видео : -630 мс.
Размер потока : 35,6 Мбайт (3%)
Продолжительность: 01:43:33

Видеокодек: MPEG-2
Битрейт видео: ~5223 Кбит/сек
Размер кадра: 720*576
Качество видео: DVD9
Аудиокодек: AC3, 2ch
Битрейт аудио: 192 Кбит/сек
Скриншоты:

Время раздачи: 24/7
Вне форума [Профиль] [ЛС]
Похожие темы
Форум Тема Автор Торрент Отв. Посл. сообщение
./templates/default/images/folder_dl.gif Приключения, детектив, боевик, триллер Алексеев Сергей - Удар "Молнии" [Литвинова Наталия, 2012, 96 kbps, MP3] Omen
1 | 0

0 | 938

6

2012-12-11 05:28
Omen Последнее
./templates/default/images/folder_dl.gif Компьютерная литература Виктор Долженков, Александр Стученков | Microsoft Office Excel 2010 (2011) [PDF] Omen
1 | 0

0 | 1297

14

2014-08-09 12:42
Omen Последнее
./templates/default/images/folder_dl.gif Компьютерная литература Виктор Долженков, Александр Стученков | Самоучитель Excel 2010 (2011) [PDF] Omen
1 | 0

0 | 1225

7

2014-08-09 21:50
Omen Последнее
./templates/default/images/folder_dl.gif Компьютерная литература Алексей Васильев | Excel 2010 на примерах (2010) [PDF] sashau
1 | 0

0 | 763

15

2014-08-10 09:17
sashau Последнее
./templates/default/images/folder_dl.gif Обучающее видео Алекс Мэй | Сексуальные позиции. Для максимального наслаждения (2013) [CamRip] Omen
1 | 0

0 | 1698

201

2015-05-07 00:08
Omen Последнее
./templates/default/images/folder_dl.gif Обучающее видео Алекс Мэй - Секреты точки Джи [2008] DVD5 Omen
1 | 0

0 | 1748

217

2015-05-07 09:00
Omen Последнее
./templates/default/images/folder_dl.gif Обучающее видео Александр Медведев | Фотография по полкам. Свет. Часть 2 (2016) PCRec [H.264/1080p] Omen
1 | 0

0 | 400

7

2016-03-09 15:01
Omen Последнее
./templates/default/images/folder_dl.gif Обучающее видео Алекс Мэй | Формула струйных оргазмов 2.0 (2015) HDRip [H.264/1080p] Omen
1 | 0

0 | 1523

67

2016-03-24 00:01
Omen Последнее
./templates/default/images/folder_dl.gif Психология, Тренинг, Саморазвитие Алекс Лесли | ЖЖизнь без трусов (2011) [MP3] moralis
1 | 0

0 | 1254

8

2016-04-10 21:57
moralis Последнее
./templates/default/images/folder_dl.gif Обучающее видео Александр Медведев | Фотография по полкам. Образ и позировка. Часть 1 (2016) PCRec [H.264/1080p] Omen
1 | 0

0 | 577

18

2016-10-27 01:00
Omen Последнее
Показать сообщения:    
Ответить на тему

Текущее время: Сегодня 06:39

Часовой пояс: GMT + 3



Вы не можете начинать темы
Вы не можете отвечать на сообщения
Вы не можете редактировать свои сообщения
Вы не можете удалять свои сообщения
Вы не можете голосовать в опросах
Вы не можете прикреплять файлы к сообщениям
Вы не можете скачивать файлы