Today is a free download without charge Download

Лунная радуга (1983) DVD5

Reply to topic
 
Author
Message

Omen ®

Longevity: 6 years 5 months

Posts: 171875

Торрент-статистика

Post 13-Jan-2013 10:26

[Quote]

-Лунная радуга (1983) DVD5- - Где мы? - спросил человек.
- На звездной дороге, - ответил Звездный олень.
Сверкнув рогами, грациозно выгнул шею и посмотрел вперед.
- Пойдем?
- Конечно. Другого пути у нас нет.
И они пошли рядом.
-Русское название: Лунная радуга
Год выпуска: 1983
Жанр: Фантастика, Драма
Описание фильма:
Экранизация первой части романа Сергея Павлова "Лунная радуга" — "По чёрному следу". В разных районах Земли и Дальнего Внеземелья обнаружены таинственные артефакты - «черные следы». Специально созданной оперативной группе предстоит обнаружить связь «черных следов» с катастрофой на спутнике Урана Обероне, в результате которой остались в живых только четверо космодесантников с планетолёта «Лунная Радуга». Перед правительством Земли встал вопрос — не являются ли выжившие на Обероне опасностью для человечества...
Режиссер: Андрей Ермаш
Сценарий: Андрей Ермаш, Валентин Ежов.
Композитор: Эдуард Артемьев.
Актеры: Владимир Гостюхин, Василий Ливанов, Юрий Соломин, Игорь Старыгин, Владимир Кенигсон, Георгий Тараторкин, Наталья Сайко, Гражина Байкштите, Александр Пороховщиков, Гедиминас Гирдвайнис, Борис Иванов, Леонид Неведомский
Продолжительность: 01:25:08
Дата мировой премьеры: 24 января 1984
Релиз на DVD: 13 августа 2009, «Мастер Тэйп»- -Видеокодек: MPEG-2
Битрейт видео: ~5011 Кбит/сек
Размер кадра: 720х576 (4:3)
Качество видео: DVD5
Аудиокодек: AC3 2.0
Битрейт аудио: 384 Кбит/сек
Сэмпл: Ссылка

Скриншоты:

MediaInfo:

Общее
Полное имя :S:\Лунная радуга - По черному следу (1983) DVD5\VIDEO_TS\VTS_01_1.VOB
Формат : MPEG-PS
Размер файла : 1024 Мбайт
Продолжительность : 26 м.
Режим общего битрейта : Переменный
Общий поток : 5505 Кбит/сек
Видео
Идентификатор : 224 (0xE0)
Формат : MPEG Video
Версия формата : Version 2
Профиль формата : [email protected]
Параметр BVOP формата : Да
Параметр матрицы формата : Выборочная
Параметр GOP формата : M=3, N=12
Продолжительность : 26 м.
Вид битрейта : Переменный
Битрейт : 5011 Кбит/сек
Максимальный битрейт : 9000 Кбит/сек
Ширина : 720 пикселей
Высота : 576 пикселей
Соотношение сторон : 4:3
Частота кадров : 25,000 кадров/сек
Стандарт вещания : PAL
Цветовое пространство : YUV
Субдискретизация насыщенности : 4:2:0
Битовая глубина : 8 бит
Тип развёртки : Чересстрочная
Порядок развёртки : Верхнее поле первое
Метод сжатия : С потерями
Бит/(Пиксели*Кадры) : 0.483
Размер потока : 932 Мбайт (91%)
Аудио
Идентификатор : 189 (0xBD)-128 (0x80)
Формат : AC-3
Формат/Информация : Audio Coding 3
Расширение режима : CM (complete main)
Параметр Endianness формата : Big
Режим смешивания : DVD-Video
Продолжительность : 26 м.
Вид битрейта : Постоянный
Битрейт : 384 Кбит/сек
Каналы : 2 канала
Расположение каналов : Front: L R
Частота : 48,0 КГц
Битовая глубина : 16 бит
Метод сжатия : С потерями
Задержка видео : -80 мс.
Размер потока : 71,4 Мбайт (7%)
Меню

DVDInfo:

Size: 3.82 Gb ( 4 001 876 KBytes ) - DVD-5
Enabled regions: 1, 2, 3, 4, 5, 6, 7, 8
VTS_01 :
Play Length: 01:25:07
Video: PAL 4:3 (704x576) VBR
Audio:
Russian (Dolby AC3, 2 ch)
Menu Video:
PAL 4:3 (704x576) VBR
Menu Audio:
Not specified (Dolby AC3, 2 ch)
Menu Subtitles:
Not specified
Menu English Language Unit :
Root Menu
Время раздачи: С 17:00 до 21:00 UTC0 (24/7 - круглосуточно)
Other forum [Profile] [PM]
Display posts from previous:    
Reply to topic

The time now is: Today 05:44

All times are GMT + 3 Hours



You cannot post new topics in this forum
You cannot reply to topics in this forum
You cannot edit your posts in this forum
You cannot delete your posts in this forum
You cannot vote in polls in this forum
You cannot attach files in this forum
You cannot download files in this forum