Today is a free download without charge Download

Петля Ориона (1980) DVD5

Reply to topic
 
Author
Message

Omen ®

Longevity: 6 years 7 months

Posts: 181103

Торрент-статистика

Post 13-Jan-2013 10:26

[Quote]

-Петля Ориона (1980) DVD5- Русское название: Петля Ориона
Год выпуска: 1980
Жанр: Фантастика
Описание фильма:
В глубинах космоса обнаружен загадочный сгусток энергии, приближающийся к Земле. Навстречу "Петле
Ориона" (так назвали это явление) отправляется экспедиция со смешанным экипажем из людей и киборгов. Достигнув
места назначения, они встречают неизвестную инопланетную цивилизацию, от которой узнают, что Земле грозит
серьёзная опасность – так называемая "стеклянная болезнь". Инопланетяне пытаются спасти человечество, создав вокруг
планеты энергетический барьер (а именно "Петлю Ориона"). Но путь к пониманию двух цивилизаций оказывается
тернист...
Режиссер: Василий Левин
Актеры: Гиви Тохадзе, Геннадий Шкуратов, Анатолий Азо, Виталий Дорошенко, Анатолий Матешко, Леонид Бакштаев, Людмила Смородина, Лиа Элиава, Елена Кокалевская
Продолжительность: 01:20:28

Видеокодек: MPEG-2
Битрейт видео: ~8500 Kbps
Размер кадра: 720x576
Качество видео: DVD5
Аудиокодек: AC3 5.1
Битрейт аудио: 448 Kbps

DVDInfo:

Title: Petlya.Oriona.1980.DVD5
Size: 3.43 Gb ( 3 600 248,00 KBytes ) - DVD-5
Enabled regions: 1, 2, 3, 4, 5, 6, 7, 8
VTS_01 :
Play Length: 00:00:00
Video: PAL 4:3 (720x576) VBR
Audio:
Russian (Dolby AC3, 6 ch)
VTS_02 :
Play Length: 01:20:28
Video: PAL 4:3 (720x576) VBR
Audio:
Russian (Dolby AC3, 6 ch)
VTS_03 :
Play Length: 00:00:00
Video: PAL 16:9 (720x576) VBR, Auto Letterboxed
Audio:
Not specified (Dolby AC3, 2 ch)
Not specified (Dolby AC3, 2 ch)
VTS_04 :
Play Length: 00:00:00
Video: PAL 4:3 (720x576) VBR
Audio:
Not specified (Dolby AC3, 2 ch)
Not specified (Dolby AC3, 2 ch)
VTS_05 :
Play Length: 00:00:00
Video: PAL 4:3 (720x576) VBR
Audio:
Not specified (Dolby AC3, 2 ch)
Not specified (Dolby AC3, 2 ch)
VTS_06 :
Play Length: 00:00:00
Video: PAL 4:3 (720x576) VBR
Audio:
Not specified (Dolby AC3, 2 ch)
Not specified (Dolby AC3, 2 ch)
VTS_07 :
Play Length: 00:00:00
Video: PAL 4:3 (720x576) VBR
Audio:
Not specified (Dolby AC3, 2 ch)
Not specified (Dolby AC3, 2 ch)
VTS_08 :
Play Length: 00:00:00
Video: PAL 4:3 (720x576) VBR
Audio:
Not specified (Dolby AC3, 2 ch)
Not specified (Dolby AC3, 2 ch)
VTS_09 :
Play Length: 00:00:00
Video: PAL 4:3 (720x576) VBR
Audio:
Not specified (Dolby AC3, 2 ch)
Not specified (Dolby AC3, 2 ch)
VTS_10 :
Play Length: 00:00:00
Video: PAL 4:3 (720x576) VBR
Audio:
Not specified (Dolby AC3, 2 ch)
Not specified (Dolby AC3, 2 ch)
VTS_11 :
Play Length: 00:00:00
Video: PAL 4:3 (720x576) VBR
Audio:
Not specified (Dolby AC3, 2 ch)
Not specified (Dolby AC3, 2 ch)
VTS_12 :
Play Length: 00:00:00
Video: PAL 4:3 (720x576) VBR
Audio:
Not specified (Dolby AC3, 2 ch)
Not specified (Dolby AC3, 2 ch)
* Menus Information *
VIDEO_TS Menu
Video:
NTSC 4:3 (720x480) VBR
Auto Pan&Scan, Auto Letterboxed
English Language Unit :
Title Menu

MediaInfo:

Общее
Полное имя : G:\Cоветские_Российские 1\!для nnm-club\Петля Ориона (1980) DVD5\Petlya.Oriona.1980.DVD5\VIDEO_TS\VTS_02_1.VOB
Формат : MPEG-PS
Размер файла : 1024 Мбайт
Продолжительность : 23 м.
Режим общего битрейта : Переменный
Общий поток : 5993 Кбит/сек
Видео
Идентификатор : 224 (0xE0)
Формат : MPEG Video
Версия формата : Version 2
Профиль формата : [email protected]
Параметр BVOP формата : Да
Параметр матрицы формата : Выборочная
Параметр GOP формата : M=3, N=12
Продолжительность : 23 м.
Вид битрейта : Переменный
Битрейт : 5425 Кбит/сек
Максимальный битрейт : 8500 Кбит/сек
Ширина : 720 пикселей
Высота : 576 пикселей
Соотношение сторон : 4:3
Частота кадров : 25,000 кадров/сек
Стандарт вещания : PAL
Цветовое пространство : YUV
Субдискретизация насыщенности : 4:2:0
Битовая глубина : 8 бит
Тип развёртки : Чересстрочная
Порядок развёртки : Верхнее поле первое
Метод сжатия : С потерями
Бит/(Пиксели*Кадры) : 0.523
Размер потока : 927 Мбайт (91%)
Аудио
Идентификатор : 189 (0xBD)-128 (0x80)
Формат : AC-3
Формат/Информация : Audio Coding 3
Расширение режима : CM (complete main)
Параметр Endianness формата : Big
Режим смешивания : DVD-Video
Продолжительность : 23 м.
Вид битрейта : Постоянный
Битрейт : 448 Кбит/сек
Каналы : 6 каналов
Расположение каналов : Front: L C R, Side: L R, LFE
Частота : 48,0 КГц
Битовая глубина : 16 бит
Метод сжатия : С потерями
Задержка видео : -80 мс.
Размер потока : 76,5 Мбайт (7%)
Меню

MenuDVD:

       
Скриншоты:
         
         
Other forum [Profile] [PM]
Display posts from previous:    
Reply to topic

The time now is: Today 23:55

All times are GMT + 3 Hours



You cannot post new topics in this forum
You cannot reply to topics in this forum
You cannot edit your posts in this forum
You cannot delete your posts in this forum
You cannot vote in polls in this forum
You cannot attach files in this forum
You cannot download files in this forum