Сегодня идет свободное скачивание без начисления Download

Разбудите Мухина! (1967) DVD5

Ответить на тему
 
Автор
Сообщение

Omen ®

Стаж: 5 лет 11 месяцев

Сообщений: 184329

Торрент-статистика

Пост 13-Янв-2013 10:26

[Цитировать]

-Разбудите Мухина! (1967) DVD5- Русское название: Разбудите Мухина!
Год выпуска: 1967
Жанр: Комедия
Описание фильма:
Заснув на лекции, студент-вечерник Мухин отправляется в путешествие по эпохам, стремясь уберечь от трагических ошибок любимых героев.
Режиссер: Яков Сегель
Актеры: Сергей Шакуров, Лилиана Алешникова, Александр Палеес, Валерий Козинец, Николай Рыбников, Николай Сергеев, Иван Рыжов, Юрий Чекулаев, Семен Сафонов
Продолжительность: 01:19:08

Видеокодек: MPEG-2
Битрейт видео: ~7453 Кбит/сек
Размер кадра: 720x576
Качество видео: DVD5
Аудиокодек: AC3 2.0
Битрейт аудио: 224 Кбит/сек

DVDMenu:

     

MediaInfo:

Общее
Полное имя : G:\new 092012\!102\Разбудите Мухина!\dvd\RazbuditeM\VIDEO_TS\VTS_01_1.VOB
Формат : MPEG-PS
Размер файла : 1024 Мбайт
Продолжительность : 18 м.
Режим общего битрейта : Переменный
Общий поток : 7833 Кбит/сек
Видео
Идентификатор : 224 (0xE0)
Формат : MPEG Video
Версия формата : Version 2
Профиль формата : [email protected]
Параметр BVOP формата : Да
Параметр матрицы формата : Выборочная
Параметр GOP формата : M=3, N=15
Продолжительность : 18 м.
Вид битрейта : Переменный
Битрейт : 7453 Кбит/сек
Максимальный битрейт : 9000 Кбит/сек
Ширина : 720 пикселей
Высота : 576 пикселей
Соотношение сторон : 4:3
Частота кадров : 25,000 кадров/сек
Стандарт вещания : PAL
Цветовое пространство : YUV
Субдискретизация насыщенности : 4:2:0
Битовая глубина : 8 бит
Тип развёртки : Чересстрочная
Порядок развёртки : Верхнее поле первое
Метод сжатия : С потерями
Бит/(Пиксели*Кадры) : 0.719
Размер потока : 974 Мбайт (95%)
Аудио
Идентификатор : 189 (0xBD)-128 (0x80)
Формат : AC-3
Формат/Информация : Audio Coding 3
Профиль формата : Dolby Digital
Расширение режима : CM (complete main)
Параметр Endianness формата : Big
Режим смешивания : DVD-Video
Продолжительность : 18 м.
Вид битрейта : Постоянный
Битрейт : 224 Кбит/сек
Каналы : 2 канала
Расположение каналов : Front: L R
Частота : 48,0 КГц
Битовая глубина : 16 бит
Метод сжатия : С потерями
Размер потока : 29,3 Мбайт (3%)
Меню

DVDInfo:

Title: RazbuditeM
Size: 4.37 Gb ( 4 586 178,00 KBytes ) - DVD-5
Enabled regions: 1, 2, 3, 4, 5, 6, 7, 8
VTS_01 :
Play Length: 01:19:07
Video: PAL 16:9 (720x576) VBR, Auto Letterboxed
Audio:
Russian (Dolby AC3, 2 ch)
* Menus Information *
VIDEO_TS Menu
Video:
PAL 4:3 (720x576) VBR
English Language Unit :
Title Menu
VTS_01 Menu
Video:
PAL 4:3 (720x576) VBR
Audio:
Not specified (Dolby AC3, 2 ch)
English Language Unit :
Root Menu
Chapter (PTT) Menu
Скриншоты:
         
         
Вне форума [Профиль] [ЛС]
Показать сообщения:    
Ответить на тему

Текущее время: Сегодня 18:17

Часовой пояс: GMT + 3



Вы не можете начинать темы
Вы не можете отвечать на сообщения
Вы не можете редактировать свои сообщения
Вы не можете удалять свои сообщения
Вы не можете голосовать в опросах
Вы не можете прикреплять файлы к сообщениям
Вы не можете скачивать файлы