Сегодня идет свободное скачивание без начисления Download

Урок литературы (1968) DVD5

Ответить на тему
 
Автор
Сообщение

Omen ®

Стаж: 6 лет 1 месяц

Сообщений: 184308

Торрент-статистика

Пост 13-Янв-2013 10:26

[Цитировать]

-Урок литературы (1968) DVD5- Русское название: Урок литературы
Год выпуска: 1968
Жанр: Комедия
Описание фильма:
Однажды не любящий свою работу учитель литературы решает больше не врать. Он уходит из школы, ссорится со своей знакомой Леной, с невестой Ниной, которую любит, но продолжает говорить только чистую правду и уже втягивается в новую жизнь...
Режиссер: Алексей Коренев
Актеры: Евгений Стеблов, Виктория Фёдорова, Леонид Куравлёв, Инна Макарова, Валентина Малявина, Евгений Леонов, Лариса Пашкова, Любовь Добржанская, Готлиб Ронинсон, Николай Парфёнов, Анатолий Линьков
Продолжительность: 01:12:03

Видеокодек: MPEG-2
Битрейт видео: ~7530 Кбит/сек
Размер кадра: 720x576
Качество видео: DVD5
Аудиокодек: AC3 2.0
Битрейт аудио: 384 Кбит/сек

MediaInfo:

Общее
Полное имя : G:\new 092012\!102\Урок литературы\Урок литературы (1968) DVD5\UROK_LiterDVD\VIDEO_TS\VTS_01_1.VOB
Формат : MPEG-PS
Размер файла : 1024 Мбайт
Продолжительность : 17 м.
Общий поток : 8057 Кбит/сек
Видео
Идентификатор : 224 (0xE0)
Формат : MPEG Video
Версия формата : Version 2
Профиль формата : [email protected]
Параметр BVOP формата : Да
Параметр матрицы формата : Выборочная
Параметр GOP формата : M=3, N=12
Продолжительность : 17 м.
Битрейт : 7530 Кбит/сек
Ширина : 720 пикселей
Высота : 576 пикселей
Соотношение сторон : 4:3
Частота кадров : 25,000 кадров/сек
Стандарт вещания : PAL
Цветовое пространство : YUV
Субдискретизация насыщенности : 4:2:0
Битовая глубина : 8 бит
Тип развёртки : Чересстрочная
Порядок развёртки : Верхнее поле первое
Метод сжатия : С потерями
Бит/(Пиксели*Кадры) : 0.726
Размер потока : 955 Мбайт (93%)
Аудио
Идентификатор : 189 (0xBD)-128 (0x80)
Формат : AC-3
Формат/Информация : Audio Coding 3
Расширение режима : CM (complete main)
Параметр Endianness формата : Big
Режим смешивания : DVD-Video
Продолжительность : 17 м.
Вид битрейта : Постоянный
Битрейт : 384 Кбит/сек
Каналы : 2 канала
Расположение каналов : Front: L R
Частота : 48,0 КГц
Битовая глубина : 16 бит
Метод сжатия : С потерями
Задержка видео : -80 мс.
Размер потока : 48,8 Мбайт (5%)
Меню

DVDInfo:

Title: UROK_LiterDVD
Size: 4.10 Gb ( 4 302 010,00 KBytes ) - DVD-5
Enabled regions: 1, 2, 3, 4, 5, 6, 7, 8
VTS_01 :
Play Length: 01:12:03
Video: PAL 4:3 (720x576) VBR, Letterboxed
Audio:
Russian (Dolby AC3, 2 ch)
* Menus Information *
VIDEO_TS Menu
Video:
PAL 4:3 (720x576) VBR
Letterboxed
Audio:
Not specified (Dolby AC3, 2 ch)
English Language Unit :
Title Menu
VTS_01 Menu
Video:
PAL 4:3 (720x576) VBR
Audio:
Not specified (Dolby AC3, 2 ch)
English Language Unit :
Root Menu

MenuDVD:

   
Скриншоты:
         
         
Дополнительные матнриалы:
Коробка DVD
DVD
Вне форума [Профиль] [ЛС]
Показать сообщения:    
Ответить на тему

Текущее время: Сегодня 17:05

Часовой пояс: GMT + 3



Вы не можете начинать темы
Вы не можете отвечать на сообщения
Вы не можете редактировать свои сообщения
Вы не можете удалять свои сообщения
Вы не можете голосовать в опросах
Вы не можете прикреплять файлы к сообщениям
Вы не можете скачивать файлы