Сегодня идет свободное скачивание без начисления Download

Риск - благородное дело (1977) DVD5

Ответить на тему
 
Автор
Сообщение

Omen ®

Стаж: 6 лет

Сообщений: 184329

Торрент-статистика

Пост 13-Янв-2013 10:26

[Цитировать]

-Риск - благородное дело (1977) DVD5- Русское название: Риск - благородное дело
Год выпуска: 1977
Жанр: Драма
Описание фильма:
Бывший чемпион по десятиборью тяжело переживает свой уход из большого спорта. Знакомые предлагают ему поработать каскадером на киностудии. Согласившись, спортсмен спасается от депрессии, к тому же находит среди новых коллег настоящую любовь. Но во время съемок судьба готовит ему новое испытание...
Режиссер: Яков Сегель
Актеры: Александр Михайлов, Лилиана (Лилия) Алешникова, Александр Лазарев, Александр Вокач, Марина Дюжева, Леонид Гайдай, Владимир Грамматиков, Владимир Гусев, Вадим Захарченко, Леонид Каневский, Артем Карапетян, Эльза Леждей, Ольга Маркина, Наталья Мартинсон (Ягунова), Георгий Мартынюк, Алексей Миронов, Евгений Моргунов, Люсьена Овчинникова, Пётр Олев, Эльдар Рязанов, Николай Сергеев, Николай Скоробогатов, Зинаида Сорочинская, Семен Фарада, Анна Фроловцева, Виктор Шульгин, Тамара Яренко
Продолжительность: 01:16:46

Видеокодек: MPEG-2
Битрейт видео: ~6044 Кбит/сек
Размер кадра: 720x576
Качество видео: DVD5
Аудиокодек: AC3 2.0
Битрейт аудио: 192 Кбит/сек

MediaInfo:

Общее
Полное имя : F:\1112\Риск - благородное дело\RISK_BL_DELO\VIDEO_TS\VTS_02_1.VOB
Формат : MPEG-PS
Размер файла : 1024 Мбайт
Продолжительность : 22 м.
Режим общего битрейта : Переменный
Общий поток : 6362 Кбит/сек
Видео
Идентификатор : 224 (0xE0)
Формат : MPEG Video
Версия формата : Version 2
Профиль формата : [email protected]
Параметр BVOP формата : Да
Параметр матрицы формата : Выборочная
Параметр GOP формата : M=3, N=12
Продолжительность : 22 м.
Вид битрейта : Переменный
Битрейт : 6044 Кбит/сек
Максимальный битрейт : 8000 Кбит/сек
Ширина : 720 пикселей
Высота : 576 пикселей
Соотношение сторон : 4:3
Частота кадров : 25,000 кадров/сек
Стандарт вещания : PAL
Цветовое пространство : YUV
Субдискретизация насыщенности : 4:2:0
Битовая глубина : 8 бит
Тип развёртки : Чересстрочная
Порядок развёртки : Верхнее поле первое
Метод сжатия : С потерями
Бит/(Пиксели*Кадры) : 0.583
Размер потока : 973 Мбайт (95%)
Основные цвета : BT.601 NTSC
Характеристики трансфера : BT.601
Коэффициенты матрицы : BT.601
Аудио
Идентификатор : 189 (0xBD)-128 (0x80)
Формат : AC-3
Формат/Информация : Audio Coding 3
Расширение режима : CM (complete main)
Параметр Endianness формата : Big
Режим смешивания : DVD-Video
Продолжительность : 22 м.
Вид битрейта : Постоянный
Битрейт : 192 Кбит/сек
Каналы : 2 канала
Расположение каналов : Front: L R
Частота : 48,0 КГц
Битовая глубина : 16 бит
Метод сжатия : С потерями
Размер потока : 30,9 Мбайт (3%)
Меню

DVDInfo:

Title: RISK_BL_DELO
Size: 3.45 Gb ( 3 614 820,00 KBytes ) - DVD-5
Enabled regions: 1, 2, 3, 4, 5, 6, 7, 8
VTS_01 :
Play Length: 00:00:43
Video: PAL 4:3 (720x576) VBR
Audio:
English (Dolby AC3, 2 ch)
VTS_02 :
Play Length: 01:16:46
Video: PAL 4:3 (720x576) VBR
Audio:
English (Dolby AC3, 2 ch)
* Menus Information *
VIDEO_TS Menu
Video:
PAL 4:3 (720x576) VBR
English Language Unit :
Title Menu
VTS_01 Menu
Video:
PAL 4:3 (720x576) VBR
Audio:
Not specified (Dolby AC3, 2 ch)
English Language Unit :
Root Menu
VTS_02 Menu
Video:
PAL 4:3 (720x576) VBR
English Language Unit :
Root Menu

MenuDVD:

   
Скриншоты:
         
         

Рецензия, отзыв о фильме

оздание нормального фильма - длительная совместная коллективная работа. Не мудрено, что советские фильмы были и есть столь успешны и естественны по содержанию. Ведь успеху их в этом плане способствовали сами принципы организации того общества!
Атмосфера фильма - как люди делают ДЕЛО. Люди разные - настройщики роялей, спортсмены, киношники и т.д. И им это нравится и результаты их труда радуют других. Просто чудеса ! Очевидно, что так было не везде и не так. Но идеалы, вектора развития, тренды, называйте как угодно, были именно такими!
Вне форума [Профиль] [ЛС]
Показать сообщения:    
Ответить на тему

Текущее время: Сегодня 19:58

Часовой пояс: GMT + 3



Вы не можете начинать темы
Вы не можете отвечать на сообщения
Вы не можете редактировать свои сообщения
Вы не можете удалять свои сообщения
Вы не можете голосовать в опросах
Вы не можете прикреплять файлы к сообщениям
Вы не можете скачивать файлы