Today is a free download without charge Download

Никто не хотел умирать (1965) DVD5

Reply to topic
 
Author
Message

Omen ®

Longevity: 6 years 5 months

Posts: 181112

Торрент-статистика

Post 13-Jan-2013 10:26

[Quote]

-Никто не хотел умирать(1965) DVD5- Русское название:Никто не хотел умирать
Производство: СССР, Литовская киностудия
Год выпуска: 1965
Жанр: Драма
Описание фильма:
Шел второй послевоенный год.Но в литовских лесах еще прятались вооруженные банды из бывших полицейских и офицеров.Уже убиты четыре председателя сельсовета.Теперь погиб еще один – старый Локис.На похоронах четверо его сыновей клянутся не покидать родную деревню до тех пор, пока не найдут убийц отца и не уничтожат банду Домового.
Режиссер: Витаутас Жалакявичюс
Актеры: Казимирас Виткус, Эугения Шулгайте, Регимантас Адомайтис, Юозас Будрайтис, Альгимантас Масюлис, Бруно Оя, Донатас Банионис, Вия Артмане
Продолжительность: 01:40:54

Видеокодек: MPEG-2
Битрейт видео: ~5006 Кбит/сек
Размер кадра: 720x576
Качество видео: DVD5
Аудиокодек: MP2, 2 ch
Битрейт аудио: 224 Кбит/сек

MediaInfo:

Общее
Полное имя : G:\new 092012\никто не хотел умирать\Никто не хотел умирать DVD\VIDEO_TS\VTS_01_1.VOB
Формат : MPEG-PS
Размер файла : 1024 Мбайт
Продолжительность : 26 м.
Режим общего битрейта : Переменный
Общий поток : 5337 Кбит/сек
Библиотека кодирования : (c) 1998-2010 Womble Multimedia, Inc. / MPEG Video Wizard DVD 5.0.0.114 (01/2010) / Mar 19 2011
Видео
Идентификатор : 224 (0xE0)
Формат : MPEG Video
Версия формата : Version 2
Профиль формата : [email protected]
Параметр BVOP формата : Да
Параметр матрицы формата : По умолчанию
Параметр GOP формата : M=3, N=12
Продолжительность : 26 м.
Вид битрейта : Переменный
Битрейт : 5006 Кбит/сек
Максимальный битрейт : 6500 Кбит/сек
Ширина : 720 пикселей
Высота : 576 пикселей
Соотношение сторон : 4:3
Частота кадров : 25,000 кадров/сек
Стандарт вещания : PAL
Цветовое пространство : YUV
Субдискретизация насыщенности : 4:2:0
Битовая глубина : 8 бит
Тип развёртки : Чересстрочная
Порядок развёртки : Нижнее поле первое
Метод сжатия : С потерями
Бит/(Пиксели*Кадры) : 0.483
Размер потока : 961 Мбайт (94%)
Выравнивание : (c) 1998-2010 Womble Multimedia, Inc. / MPEG Video Wizard DVD 5.0.0.114 (01/2010) / Mar 19 2011
Заголовок : (c) 1998-2010 Womble Multimedia, Inc. / MPEG Video Wizard DVD 5.0.0.114 (01/2010) / Mar 19 2011
Библиотека кодирования : (c) 1998-2010 Womble Multimedia, Inc. / MPEG Video Wizard DVD 5.0.0.114 (01/2010) / Mar 19 2011
Аудио
Идентификатор : 192 (0xC0)
Формат : MPEG Audio
Версия формата : Version 1
Профиль формата : Layer 2
Продолжительность : 26 м.
Вид битрейта : Постоянный
Битрейт : 224 Кбит/сек
Каналы : 2 канала
Частота : 48,0 КГц
Метод сжатия : С потерями
Размер потока : 43,0 Мбайт (4%)
Меню

DVDInfo:

Title: Никто не хотел умирать DVD
Size: 3.79 Gb ( 3 978 186,00 KBytes ) - DVD-5
Enabled regions: 1, 2, 3, 4, 5, 6, 7, 8
VTS_01 :
Play Length: 01:40:54
Video: PAL 4:3 (720x576) VBR
Audio:
English (MPEG1, 2 ch)
* Menus Information *
VIDEO_TS Menu
Video:
PAL 4:3 (720x576) VBR
Audio:
Not specified (Dolby AC3, 2 ch)
Language Unit :
VTS_01 Menu
Video:
PAL 4:3 (720x576) VBR
Audio:
English (Dolby AC3, 2 ch)
Language Unit :
Root Menu

MenuDVD:

 
Скриншоты:
         
         

Рецензия, отзыв о фильме

Лучший фильм 1966 года по опросу журнала "Советский экран".
Прокат (1966, 19 место) - 22.8 млн. зрителей.Эту прославленную ленту, которая стала, между прочим, самой кассовой среди всех литовских картин, нередко называли образцом «советского вестерна», во всяком случае — видели в данной работе несомненное присутствие элементов приключенческого, остросюжетного жанра. Или же превозносили как одно из лучших кинопроизведений многонационального кинематографа СССР с точно расставленными идеологическими акцентами в послевоенной истории Литвы, когда новая власть должна была расправиться с последними попытками «лесных братьев» воспрепятствовать установлению коммунистического режима на территории одной из прибалтийских стран, которые стали заложницами исторического передела мира.
Но, пожалуй, было бы плодотворнее сравнение действительно замечательного фильма 35-летнего литовского режиссёра Витаутаса Жалакявичюса (это его третья по счёту самостоятельная полнометражная работа) с другой поистине трагической лентой — «Пепел и алмаз» знаменитого поляка Анджея Вайды. Поскольку под видом тематически и политически правильных экранных творений в них, на самом-то деле, был скрыт явно неоднозначный и, более того, исторически амбивалентный смысл, а исходное противоречие личного и социального, индивидуальности и системы приобретало в итоге чуть ли не экзистенциальную неразрешимость. Это как раз и позволяло воспринимать внешне напряжённое действие в качестве глубокой и по-человечески понятной трагедии из новых времён, когда любой выбор, который был вынужденно сделан героями в типичной «пограничной ситуации», оказывался относительным и, наоборот, ввергающим их в состояние «тотальных одиночек» — вне зависимости от занимаемой стороны в политическом конфликте.
Теперь же со вполне объяснимым опозданием постигаешь, что афористически звучащее название «Никто не хотел умирать» должно бы настраивать не на легендарно-героический лад, а на признание абсолютно естественного права каждого человека на свою жизнь, что раньше у нас пытались заклеймить презрительными словами об «абстрактном гуманизме». Кстати, знаменательно, что в 1966 году, так сказать, в разгар «пражской весны», на Карловарском кинофестивале, где одной из премий удостоился в чём-то перекликающийся чешский фильм «Повозка в Вену» Карела Кахини, приз за мужскую роль достался Донатасу Банионису, который сыграл у Жалакявичюса человека, умудряющегося сохранять достоинство в положении «меж двух огней».
Other forum [Profile] [PM]
Display posts from previous:    
Reply to topic

The time now is: Today 13:55

All times are GMT + 3 Hours



You cannot post new topics in this forum
You cannot reply to topics in this forum
You cannot edit your posts in this forum
You cannot delete your posts in this forum
You cannot vote in polls in this forum
You cannot attach files in this forum
You cannot download files in this forum