Сегодня идет свободное скачивание без начисления Download

Волны Черного моря (1975) (Серия5-8) DVD9

Ответить на тему
 
Автор
Сообщение

Omen ®

Стаж: 6 лет

Сообщений: 184329

Торрент-статистика

Пост 13-Янв-2013 10:26

[Цитировать]

-Волны Черного моря (1975) (Серия 5-8) DVD9- Русское название: Волны Черного моря
Производство: Киностудия им.А.Довженко
Серий всего: 8
Серия: 5-8
Год выпуска: 1975
Жанр: Семейный, Приключения, Драма
Серия 1-4
Описание фильма:
Многосерийный телевизионный фильм, снятый на киностудии Довженко по мотивам трех романов Валентина Катаева «Волны черного моря», куда вошли книги «Белеет парус одинокий», «Зимний ветер» и «За власть Советов» (или «Катакомбы»). 8-мь серий.В шумной и веселой Одессе в разгаре лето. Непоседливый Гаврик и его дед ловят рыбу, продавая ее жадной мадам Стороженко с привоза, а Петя, сын коллежского советника, собирается поступать в гимназию. Гаврику и Пете не приходится скучать, ведь они — неразлучные друзья и неутомимые проказники.Новые революционные времена вносят неожиданные перемены в их жизнь — в образе беглого матроса с «Потемкина», которого ищут жандармы. На глазах у мальчишек пишутся новые страницы истории и они, сами того не ведая, становятся ее героями…
Режиссер: Артур Войтецкий, Олег Гойда, Вячеслав Криштофович
Актеры: Вадим Кузнецов, Эдуард Купоросов, Виталик Агарков, Олег Табаков, Евгений Леонов-Гладышев, Владимир Волков, Лев Перфилов, Степан Хацкевич, Иван Миколайчук, Алексей Петренко, Эрнст Романов, Ада Роговцева, Сергей Никоненко, Юрий Саранцев, Наталья Наум, Евгений Весник, Галина Волчек, Федор Панасенко, Тамара Трач, Галина Федотова, Сергей Подгорный, Ирина Бразговка, И. Латта, Александр Лазарев (старший), Тамара Невская, Лилия Гурова, Анатолий Адоскин, Сергей Иванов, Татьяна Зарицкая, Виталий Дорошенко, Виктор Маляревич, Николай Мерзликин, Алексей Чернов, Маргарита Кошелева, Богдан Ступка, Светлана Кондратова, Таня Надемская
Продолжительность: 01:14:08 + 01:13:39 + 01:03:33 + 01:12:46

Видеокодек: MPEG-2
Битрейт видео: ~3761 Кбит/сек
Размер кадра: 720x576
Качество видео: DVD9
Аудиокодек: AC3 2.0
Битрейт аудио: 256 Кбит/сек

DVDMenu:

         

MediaInfo:

Общее
Полное имя : F:\1112\Волны Черного моря\VOLNY_CHERNOGO_MORIA\VOLNY_CHERNOGO_MORIA_DVD5-8\VIDEO_TS\VTS_01_1.VOB
Формат : MPEG-PS
Размер файла : 1024 Мбайт
Продолжительность : 34 м.
Режим общего битрейта : Переменный
Общий поток : 4099 Кбит/сек
Видео
Идентификатор : 224 (0xE0)
Формат : MPEG Video
Версия формата : Version 2
Профиль формата : [email protected]
Параметр BVOP формата : Да
Параметр матрицы формата : Выборочная
Параметр GOP формата : Variable
Продолжительность : 34 м.
Вид битрейта : Переменный
Битрейт : 3761 Кбит/сек
Максимальный битрейт : 7500 Кбит/сек
Ширина : 720 пикселей
Высота : 576 пикселей
Соотношение сторон : 4:3
Частота кадров : 25,000 кадров/сек
Стандарт вещания : PAL
Цветовое пространство : YUV
Субдискретизация насыщенности : 4:2:0
Битовая глубина : 8 бит
Тип развёртки : Чересстрочная
Порядок развёртки : Верхнее поле первое
Метод сжатия : С потерями
Бит/(Пиксели*Кадры) : 0.363
Размер потока : 940 Мбайт (92%)
Аудио
Идентификатор : 189 (0xBD)-128 (0x80)
Формат : AC-3
Формат/Информация : Audio Coding 3
Расширение режима : CM (complete main)
Параметр Endianness формата : Big
Режим смешивания : DVD-Video
Продолжительность : 34 м.
Вид битрейта : Постоянный
Битрейт : 256 Кбит/сек
Каналы : 2 канала
Расположение каналов : Front: L R
Частота : 48,0 КГц
Битовая глубина : 16 бит
Метод сжатия : С потерями
Размер потока : 63,9 Мбайт (6%)
Меню

DVDInfo:

Title: VOLNY_CHERNOGO_MORIA_DVD5-8
Size: 7.95 Gb ( 8 333 892,00 KBytes ) - DVD-9
Enabled regions: 1, 2, 3, 4, 5, 6, 7, 8
VTS_01 :
Play Length: 01:14:08
Video: PAL 4:3 (720x576) VBR
Audio:
Russian (Dolby AC3, 2 ch)
VTS_02 :
Play Length: 01:13:39
Video: PAL 4:3 (720x576) VBR
Audio:
Russian (Dolby AC3, 2 ch)
VTS_03 :
Play Length: 01:03:33
Video: PAL 4:3 (720x576) VBR
Audio:
Russian (Dolby AC3, 2 ch)
VTS_04 :
Play Length: 01:12:46
Video: PAL 4:3 (720x576) VBR
Audio:
Russian (Dolby AC3, 2 ch)
VTS_05 :
Play Length: 00:00:12
Video: PAL 4:3 (720x576) VBR
Audio:
Not specified (Dolby AC3, 2 ch)
* Menus Information *
VIDEO_TS Menu
Video:
PAL 4:3 (720x576) VBR
English Language Unit :
Title Menu
VTS_01 Menu
Video:
PAL 4:3 (720x576) VBR
English Language Unit :
Root Menu
Chapter (PTT) Menu
VTS_02 Menu
Video:
PAL 4:3 (720x576) VBR
English Language Unit :
Root Menu
Chapter (PTT) Menu
VTS_03 Menu
Video:
PAL 4:3 (720x576) VBR
English Language Unit :
Root Menu
Chapter (PTT) Menu
VTS_04 Menu
Video:
PAL 4:3 (720x576) VBR
English Language Unit :
Root Menu
Chapter (PTT) Menu
VTS_05 Menu
Video:
PAL 4:3 (720x576) VBR
Audio:
Not specified (Dolby AC3, 2 ch)
English Language Unit :
Root Menu
Скриншоты:
         
         
Время раздачи: С 09:00 до 23:00
Вне форума [Профиль] [ЛС]
Показать сообщения:    
Ответить на тему

Текущее время: Сегодня 16:32

Часовой пояс: GMT + 3



Вы не можете начинать темы
Вы не можете отвечать на сообщения
Вы не можете редактировать свои сообщения
Вы не можете удалять свои сообщения
Вы не можете голосовать в опросах
Вы не можете прикреплять файлы к сообщениям
Вы не можете скачивать файлы