Сегодня идет свободное скачивание без начисления Download

Сегодня – новый аттракцион (1965) DVD5

Ответить на тему
 
Автор
Сообщение

Omen ®

Стаж: 5 лет 10 месяцев

Сообщений: 184329

Торрент-статистика

Пост 13-Янв-2013 10:26

[Цитировать]

-Сегодня – новый аттракцион (1965) DVD5- Русское название: Сегодня – новый аттракцион
Год выпуска: 1965
Жанр: Комедия
Описание фильма:
История о цирке и цирковых артистах. Героиня фильма, сменив амплуа и став дрессировщицей тигров, добивается оглушительного успеха. Зрители буквально ломятся на ее выступления. И она, вообразив себя звездой первой величины, начинает «звездить»…
Режиссер: Надежда Кошеверова, Аполлинарий Дудко
Актеры: Марина Полбенцева, Отар Коберидзе, Фаина Раневская, Павел Суханов, Гелий Сысоев, Игорь Горбачев, Михаил Глузский, Лев Лемке
Продолжительность: 01:29:34

Видеокодек: MPEG-2
Битрейт видео: ~6200 Кбит/сек
Размер кадра: 720x576
Качество видео: DVD5
Аудиокодек: AC3 2.0
Битрейт аудио: 192 Кбит/сек

DVDInfo:

Title: Сегодня - новый аттракцион DVD5
Size: 4.15 Gb ( 4 349 294,00 KBytes ) - DVD-5
Enabled regions: 1, 2, 3, 4, 5, 6, 7, 8
VTS_01 :
Play Length: 00:00:28+01:29:06
Video: PAL 4:3 (720x576) VBR
Audio:
Russian (Dolby AC3, 2 ch)
* Menus Information *
VIDEO_TS Menu
Video:
NTSC 4:3 (720x480) VBR
Auto Pan&Scan, Auto Letterboxed
Language Unit :
VTS_01 Menu
Video:
PAL 4:3 (720x576) VBR
Audio:
Not specified (Dolby AC3, 2 ch)
Russian Language Unit :
Root Menu
Chapter (PTT) Menu

MediaInfo:

Общее
Полное имя : G:\!V\Сегодня - новый аттракцион\Сегодня - новый аттракцион DVD5\VIDEO_TS\VTS_01_2.VOB
Формат : MPEG-PS
Размер файла : 1024 Мбайт
Продолжительность : 21 м.
Общий поток : 6516 Кбит/сек
Видео
Идентификатор : 224 (0xE0)
Формат : MPEG Video
Версия формата : Version 2
Профиль формата : [email protected]
Параметр BVOP формата : Да
Параметр матрицы формата : Выборочная
Параметр GOP формата : M=3, N=12
Продолжительность : 21 м.
Битрейт : 6200 Кбит/сек
Ширина : 720 пикселей
Высота : 576 пикселей
Соотношение сторон : 4:3
Частота кадров : 25,000 кадров/сек
Стандарт вещания : PAL
Цветовое пространство : YUV
Субдискретизация насыщенности : 4:2:0
Битовая глубина : 8 бит
Тип развёртки : Чересстрочная
Порядок развёртки : Верхнее поле первое
Метод сжатия : С потерями
Бит/(Пиксели*Кадры) : 0.598
Размер потока : 973 Мбайт (95%)
Аудио
Идентификатор : 189 (0xBD)-128 (0x80)
Формат : AC-3
Формат/Информация : Audio Coding 3
Расширение режима : CM (complete main)
Параметр Endianness формата : Big
Режим смешивания : DVD-Video
Продолжительность : 21 м.
Вид битрейта : Постоянный
Битрейт : 192 Кбит/сек
Каналы : 2 канала
Расположение каналов : Front: L R
Частота : 48,0 КГц
Битовая глубина : 16 бит
Метод сжатия : С потерями
Задержка видео : -272 мс.
Размер потока : 30,2 Мбайт (3%)
Меню

DVDMenu:

       
Скриншоты:
         
Все релизы Сегодня – новый аттракцион на NNM-CLUB
Время раздачи: С 09 до 23:00
Вне форума [Профиль] [ЛС]
Показать сообщения:    
Ответить на тему

Текущее время: Сегодня 04:19

Часовой пояс: GMT + 3



Вы не можете начинать темы
Вы не можете отвечать на сообщения
Вы не можете редактировать свои сообщения
Вы не можете удалять свои сообщения
Вы не можете голосовать в опросах
Вы не можете прикреплять файлы к сообщениям
Вы не можете скачивать файлы