Сегодня идет свободное скачивание без начисления Download

Большая-малая война (1980) DVD5

Ответить на тему
 
Автор
Сообщение

Omen ®

Стаж: 5 лет 11 месяцев

Сообщений: 184329

Торрент-статистика

Пост 13-Янв-2013 10:26

[Цитировать]

-Большая-малая война (1980) DVD5- Русское название: Большая-малая война
Год выпуска: 1980
Жанр: Драма
Производство: СССР, Молдова-фильм
Описание фильма:
Фильм о ликвидации банды Махно на Украине. Возглавил эту операцию выдающийся полководец Михаил Васильевич Фрунзе.
Режиссер: Василе Паскару
Актеры: Виктор Саитов, Роман Громадский, Геннадий Сайфулин, Евгений Лазарев, Эммануил Виторган, Игорь Стариков, Арнис Лицитис, Любовь Румянцева, Владимир Горелов, Александр Сысоев, Геннадий Чулков, Владимир Шакало, Всеволод Гаврилов, Любовь Полищук, Виктор Косых, Григорий Острин, Сергей Десницкий, Павел Махотин, Татьяна Лагунова
Продолжительность: 01:26:06

Видеокодек: MPEG-2
Битрейт видео: ~5222 kbps
Размер кадра: 720х[email protected]х576
Качество видео: DVD5 R5
Аудио: (Dolby AC3 2.0) 256 kbps Русский
Доп.материалы: Нет

DVDInfo

Title: Bolshaj.malaj.voyna.1980.nnm.DVD5
Size: 3.54 Gb ( 3 715 960,00 KBytes ) - DVD-5
Enabled regions: 1, 2, 3, 4, 5, 6, 7, 8
VTS_01 :
Play Length: 01:26:06+00:00:12+00:00:20+00:00:05
Video: PAL 4:3 (720x576) VBR
Audio:
Azerbaijani (Dolby AC3, 2 ch)

MediaInfo

Общее
Полное имя : K:\Up\кино\Большая - малая война\Bolshaj.malaj.voyna.1980.nnm.DVD5\VIDEO_TS\VTS_01_1.VOB
Формат : MPEG-PS
Размер файла : 1000 Мбайт
Продолжительность : 25 м.
Режим общего битрейта : Переменный
Общий поток : 5589 Кбит/сек
Библиотека кодирования : (c) 1998-2009 Womble Multimedia, Inc. / MPEG Video Wizard (03/2009) / Nov 26 2009
Видео
Идентификатор : 224 (0xE0)
Формат : MPEG Video
Версия формата : Version 2
Профиль формата : [email protected]
Параметр BVOP формата : Да
Параметр матрицы формата : По умолчанию
Параметр GOP формата : M=3, N=12
Продолжительность : 25 м.
Вид битрейта : Переменный
Битрейт : 5222 Кбит/сек
Максимальный битрейт : 8000 Кбит/сек
Ширина : 704 пикселя
Высота : 576 пикселей
Соотношение сторон : 4:3
Частота кадров : 25,000 кадров/сек
Стандарт вещания : PAL
Цветовое пространство : YUV
Субдискретизация насыщенности : 4:2:0
Битовая глубина : 8 бит
Тип развёртки : Чересстрочная
Порядок развёртки : Верхнее поле первое
Метод сжатия : С потерями
Бит/(Пиксели*Кадры) : 0.515
Размер потока : 935 Мбайт (93%)
Библиотека кодирования : (c) 1998-2009 Womble Multimedia, Inc. / MPEG Video Wizard (03/2009) / Nov 26 2009
Аудио
Идентификатор : 189 (0xBD)-128 (0x80)
Формат : AC-3
Формат/Информация : Audio Coding 3
Расширение режима : CM (complete main)
Режим смешивания : DVD-Video
Продолжительность : 25 м.
Вид битрейта : Постоянный
Битрейт : 256 Кбит/сек
Каналы : 2 канала
Расположение каналов : Front: L R
Частота : 48,0 КГц
Битовая глубина : 16 бит
Метод сжатия : С потерями
Размер потока : 45,8 Мбайт (5%)
Меню

Скриншоты меню

   
Скриншоты:      
     

Обложка,диск

   
Время раздачи: С 09:00 до 24:00 мск-Все релизы Большая-малая война на NNM-CLUB-
Вне форума [Профиль] [ЛС]
Похожие темы
Форум Тема Автор Торрент Отв. Посл. сообщение
./templates/default/images/folder_dl.gif Домоводство, Сад, Огород, Хобби Галина Кизима | Большая энциклопедия садовода-огородника от А до Я (2017) [FB2] }{@R0N
1 | 0

0 | 1627

22

2017-02-16 19:40
}{@R0N Последнее
./templates/default/images/folder_dl.gif Компьютерная литература Лоренс Валк | Большая книга LEGO MINDSTORMS EV3 (2017) [PDF] }{@R0N
1 | 0

0 | 6213

7

2017-10-18 17:21
}{@R0N Последнее
./templates/default/images/folder_dl.gif Психология, Тренинг, Саморазвитие Лора Вандеркам | Книга о потерянном времени. У вас больше возможностей, чем вы думаете (2015) [PDF, EPUB, FB2] }{@R0N
1 | 0

0 | 634

12

2018-01-06 12:11
}{@R0N Последнее
./templates/default/images/folder_dl.gif Бизнес, Право, Экономика, Финансы Даниэль Дрешер | Основы блокчейна: вводный курс для начинающих в 25 небольших главах (2018) [PDF, RTF] }{@R0N
1 | 0

0 | 958

16

2018-02-14 20:29
}{@R0N Последнее
Показать сообщения:    
Ответить на тему

Текущее время: Сегодня 18:11

Часовой пояс: GMT + 3



Вы не можете начинать темы
Вы не можете отвечать на сообщения
Вы не можете редактировать свои сообщения
Вы не можете удалять свои сообщения
Вы не можете голосовать в опросах
Вы не можете прикреплять файлы к сообщениям
Вы не можете скачивать файлы