Today is a free download without charge Download

Большая-малая война (1980) DVD5

Reply to topic
 
Author
Message

Omen ®

Longevity: 6 years 7 months

Posts: 181103

Торрент-статистика

Post 13-Jan-2013 10:26

[Quote]

-Большая-малая война (1980) DVD5- Русское название: Большая-малая война
Год выпуска: 1980
Жанр: Драма
Производство: СССР, Молдова-фильм
Описание фильма:
Фильм о ликвидации банды Махно на Украине. Возглавил эту операцию выдающийся полководец Михаил Васильевич Фрунзе.
Режиссер: Василе Паскару
Актеры: Виктор Саитов, Роман Громадский, Геннадий Сайфулин, Евгений Лазарев, Эммануил Виторган, Игорь Стариков, Арнис Лицитис, Любовь Румянцева, Владимир Горелов, Александр Сысоев, Геннадий Чулков, Владимир Шакало, Всеволод Гаврилов, Любовь Полищук, Виктор Косых, Григорий Острин, Сергей Десницкий, Павел Махотин, Татьяна Лагунова
Продолжительность: 01:26:06

Видеокодек: MPEG-2
Битрейт видео: ~5222 kbps
Размер кадра: 720х[email protected]х576
Качество видео: DVD5 R5
Аудио: (Dolby AC3 2.0) 256 kbps Русский
Доп.материалы: Нет

DVDInfo

Title: Bolshaj.malaj.voyna.1980.nnm.DVD5
Size: 3.54 Gb ( 3 715 960,00 KBytes ) - DVD-5
Enabled regions: 1, 2, 3, 4, 5, 6, 7, 8
VTS_01 :
Play Length: 01:26:06+00:00:12+00:00:20+00:00:05
Video: PAL 4:3 (720x576) VBR
Audio:
Azerbaijani (Dolby AC3, 2 ch)

MediaInfo

Общее
Полное имя : K:\Up\кино\Большая - малая война\Bolshaj.malaj.voyna.1980.nnm.DVD5\VIDEO_TS\VTS_01_1.VOB
Формат : MPEG-PS
Размер файла : 1000 Мбайт
Продолжительность : 25 м.
Режим общего битрейта : Переменный
Общий поток : 5589 Кбит/сек
Библиотека кодирования : (c) 1998-2009 Womble Multimedia, Inc. / MPEG Video Wizard (03/2009) / Nov 26 2009
Видео
Идентификатор : 224 (0xE0)
Формат : MPEG Video
Версия формата : Version 2
Профиль формата : [email protected]
Параметр BVOP формата : Да
Параметр матрицы формата : По умолчанию
Параметр GOP формата : M=3, N=12
Продолжительность : 25 м.
Вид битрейта : Переменный
Битрейт : 5222 Кбит/сек
Максимальный битрейт : 8000 Кбит/сек
Ширина : 704 пикселя
Высота : 576 пикселей
Соотношение сторон : 4:3
Частота кадров : 25,000 кадров/сек
Стандарт вещания : PAL
Цветовое пространство : YUV
Субдискретизация насыщенности : 4:2:0
Битовая глубина : 8 бит
Тип развёртки : Чересстрочная
Порядок развёртки : Верхнее поле первое
Метод сжатия : С потерями
Бит/(Пиксели*Кадры) : 0.515
Размер потока : 935 Мбайт (93%)
Библиотека кодирования : (c) 1998-2009 Womble Multimedia, Inc. / MPEG Video Wizard (03/2009) / Nov 26 2009
Аудио
Идентификатор : 189 (0xBD)-128 (0x80)
Формат : AC-3
Формат/Информация : Audio Coding 3
Расширение режима : CM (complete main)
Режим смешивания : DVD-Video
Продолжительность : 25 м.
Вид битрейта : Постоянный
Битрейт : 256 Кбит/сек
Каналы : 2 канала
Расположение каналов : Front: L R
Частота : 48,0 КГц
Битовая глубина : 16 бит
Метод сжатия : С потерями
Размер потока : 45,8 Мбайт (5%)
Меню

Скриншоты меню

   
Скриншоты:      
     

Обложка,диск

   
Время раздачи: С 09:00 до 24:00 мск-Все релизы Большая-малая война на NNM-CLUB-
Other forum [Profile] [PM]
Similar theme
Forum Topic Author Torrent Replies Last Post
./templates/default/images/folder_dl.gif Обучающее видео Сергей Степанов - Как успевать больше, работая меньше [2011, тайм-менеджмент, CAMRip, RUS] (Тренинг) Omen
1 | 0

2 | 1574

17

2014-07-30 16:41
Omen Latest
./templates/default/images/folder_dl.gif Обучающее видео Сергей Степанов - Как успевать больше, работая меньше [2011, Управление временем, CAMRip, RUS] (тренинг) Omen
1 | 0

0 | 1040

6

2012-12-15 00:58
Omen Latest
./templates/default/images/folder_dl.gif Зарубежное кино Большой куш / Snatch (Гай Ричи) [2000, Криминал, Триллер, Комедия, BDRip 1080p] Russian Mafia
1 | 0

0 | 299

0

2016-08-12 22:47
Russian Mafia Latest
./templates/default/images/folder_dl.gif Психология, Тренинг, Саморазвитие Лора Вандеркам | Книга о потерянном времени. У вас больше возможностей, чем вы думаете (2015) [PDF, EPUB, FB2] }{@R0N
1 | 0

0 | 986

15

2018-01-06 12:11
}{@R0N Latest
./templates/default/images/folder_dl.gif Техническая и научно-популярная литература Сергей Попов | Вселенная. Краткий путеводитель по пространству и времени: от Солнечной системы до самых далеких галактик и от Большого взрыва до будущего Вселенной (2018) [FB2] }{@R0N
1 | 0

0 | 837

7

2018-12-08 23:06
}{@R0N Latest
./templates/default/images/folder_dl.gif Техническая и научно-популярная литература Стивен Хокинг | Краткие ответы на большие вопросы (2018) [FB2] }{@R0N
1 | 0

0 | 751

5

2019-01-05 23:08
}{@R0N Latest
Display posts from previous:    
Reply to topic

The time now is: Today 23:47

All times are GMT + 3 Hours



You cannot post new topics in this forum
You cannot reply to topics in this forum
You cannot edit your posts in this forum
You cannot delete your posts in this forum
You cannot vote in polls in this forum
You cannot attach files in this forum
You cannot download files in this forum