Сегодня идет свободное скачивание без начисления Download

Александр Пархоменко (1942) [H.264] DVDRip

Ответить на тему
 
Автор
Сообщение

Omen ®

Стаж: 6 лет

Сообщений: 184329

Торрент-статистика

Пост 13-Янв-2013 10:26

[Цитировать]

-Александр Пархоменко (оригинальная полная версия) (1942) [H.264] DVDRip- Русское название: Александр Пархоменко (оригинальная полная версия)
Производство: Киевской и Ташкентской киностудий
Год выпуска: 1942
Жанр: Драма, военный, биографический
Описание фильма:
"Биографический рассказ о жизни полководца времен гражданской войны Александра Пархоменко (1886 - 1921). В 1918, году захватив Украину, немецкие оккупанты стремились использовать в своей борьбе гайдамаков, белогвардейцев и "зеленых". По приказу Ворошилова, Пархоменко прибывает в Царицын. В это же время немцы переходят в активное наступление. "Красные" батальоны вооружены плохо, однако, Пархоменко удается поднять их в атаку и обратить врага в бегство. Попутно красные кавалеристы уничтожают бандитские шайки..."
Режиссер: Леонид Луков
Актеры: Семён Гольдштаб (Сталин), Николай Боголюбов (Ворошилов), Александр Хвыля (Александр Пархоменко), Петр Алейников (Гайворон), Степан Каюков (Ламычев), Вера Шершнева (Лиза), Василий Зайчиков (Колоколов), Борис Чирков (Махно), Иван Новосельцев (Быков), Татьяна Окуневская (Быкова), Юрий Лавров (Анархист), Борис Андреев, Фаина Раневская
Продолжительность: 01:42:46

Видеокодек: MPEG-4 AVC/H.264
Битрейт видео: ~2051 Кбит/сек
Размер кадра: 720x576
Качество видео: DVDRip
Аудиокодек: AC3 2.0
Битрейт аудио: 192 Кбит/сек
Сэмпл

Знаете ли вы...

Леонид Луков был одним из тех советских кинорежиссёров, кто после "разоблачения культа личности" начал с энтузиазмом штамповать "новые режиссёрские версии" своих старых фильмов. Формальный повод у него был: снятая им в 1946 г. 2-я серия "Большой жизни" была подвергнута резкой - и, надо сказать, справедливой - критике и положена на полку. Уже после смерти Сталина, в 1958 г. фильм был всё же выпущен на экран; но слабость его была столь очевидной, что в 1963 г. Луков снова возвращается к картине, пытаясь монтажом исправить надуманную и растянутую ленту...
Картину "Александр Пархоменко" многие помнят по замечательному эпизоду выдающейся актрисы советского кино Фаины Раневской - исполненному жующей тапёршей романсу (муз. и сл. Н. Богословского). В историю отечественного кино вошла остро, гротескно сыгранная Б. Чирковым роль Нестора Махно. И, конечно, нельзя не вспомнить о том, что именно из этого фильма происходит одна из "старых песен о главном" - "Ты ждёшь, Лизавета, от друга привета".Здесь выложена полная, без сокращений оригинальная версия. Позже Луков не только выбросит немногочисленные кадры со Сталиным, но и довольно большой кусок без его участия, значитально сократив длинную сцену Пархоменко в тюрьме. В любом случае, ни из песни, ни из фильма лучше ничего не выкидывать, а знакомиться с документом эпохи в том виде, в каком он стал таковым.

MediaInfo:

Общее
Уникальный идентификатор : 187048550942668246653325675188934033493 (0x8CB83D93787885BBB710104510664055)
Полное имя : G:\!V\Александр Пархоменко (оригинальная полная версия)\Александр Пархоменко DVDRip(оригинальная полная версия)\Aleksandr Parkhomenko [H.264] DVDRip.mkv
Формат : Matroska
Версия формата : Version 4 / Version 2
Размер файла : 1,70 Гбайт
Продолжительность : 1 ч. 46 м.
Общий поток : 2289 Кбит/сек
Дата кодирования : UTC 2010-02-22 21:41:31
Программа кодирования : mkvmerge v5.9.0 ('On The Loose') built on Dec 9 2012 15:37:01
Библиотека кодирования : libebml v1.3.0 + libmatroska v1.4.0
Видео
Идентификатор : 1
Формат : AVC
Формат/Информация : Advanced Video Codec
Профиль формата : [url=mailto:[email protected]][email protected][/url]
Параметр CABAC формата : Нет
Параметр ReFrames формата : 2 кадра
Параметр GOP формата : M=1, N=12
Режим смешивания : Header stripping
Идентификатор кодека : V_MPEG4/ISO/AVC
Продолжительность : 1 ч. 46 м.
Битрейт : 2051 Кбит/сек
Ширина : 720 пикселей
Высота : 576 пикселей
Соотношение сторон : 4:3
Соотношение сторон в оригинале : 4:3
Режим частоты кадров : Постоянный
Частота кадров : 23,976 кадра/сек
Стандарт вещания : NTSC
Цветовое пространство : YUV
Субдискретизация насыщенности : 4:2:0
Битовая глубина : 8 бит
Тип развёртки : Прогрессивная
Бит/(Пиксели*Кадры) : 0.206
Размер потока : 1,52 Гбайт (90%)
Заголовок : 2053 Кбит/сек
Язык : Russian
Default : Да
Forced : Нет
Основные цвета : BT.601 NTSC
Характеристики трансфера : BT.601
Коэффициенты матрицы : BT.601
Аудио
Идентификатор : 2
Формат : AC-3
Формат/Информация : Audio Coding 3
Расширение режима : CM (complete main)
Параметр Endianness формата : Big
Режим смешивания : Header stripping
Идентификатор кодека : A_AC3
Продолжительность : 1 ч. 46 м.
Вид битрейта : Постоянный
Битрейт : 192 Кбит/сек
Каналы : 2 канала
Расположение каналов : Front: L R
Частота : 48,0 КГц
Битовая глубина : 16 бит
Метод сжатия : С потерями
Задержка видео : 4 мс.
Размер потока : 146 Мбайт (8%)
Язык : Russian
Default : Да
Forced : Нет
Скриншоты:
         
         
Время раздачи: С 09 до 23:00
Вне форума [Профиль] [ЛС]
Похожие темы
Форум Тема Автор Торрент Отв. Посл. сообщение
./templates/default/images/folder_dl.gif Приключения, детектив, боевик, триллер Алексеев Сергей - Удар "Молнии" [Литвинова Наталия, 2012, 96 kbps, MP3] Omen
1 | 0

0 | 1122

8

2012-12-11 05:28
Omen Последнее
./templates/default/images/folder_dl.gif Фильмы 2001-2010 Новая земля (Александр Мельник) (2008, Фантастика, боевик, драма) [H.264] BDRip Omen
1 | 0

0 | 2625

23

2013-02-20 16:44
Omen Последнее
./templates/default/images/folder_dl.gif Обучающее видео Алекс Мэй | Академия секса (2012) [SATRip] UndegraundMen
2 | 0

0 | 11296

698

2013-09-30 23:05
UndegraundMen Последнее
./templates/default/images/folder_dl.gif Фильмы 2011-2016 Французский шпион (Алексей Феоктистов) [2014 г., боевик, детектив, DVDRip-AVC] [Лицензия] Omen
1 | 0

0 | 2157

48

2014-09-26 11:28
Omen Последнее
./templates/default/images/folder_dl.gif Обучающее видео [Profileschool] Александр Чалдрян | 3D LUT Creator. Следуй за белым кроликом (2014) PCRec Omen
1 | 0

0 | 3354

78

2014-10-29 13:07
Omen Последнее
./templates/default/images/folder_dl.gif Обучающее видео [Profileschool] Алексей Фурсов | Введение в предметную съемку (2014) PCRec Omen
1 | 0

0 | 2426

82

2014-11-06 19:19
Omen Последнее
./templates/default/images/folder_dl.gif Обучающее видео [Profileschool] Алексей Шадрин | Управление визуальным объемом и резкостью изображений (2014) PCRec Omen
1 | 0

0 | 2750

129

2014-11-14 15:38
Omen Последнее
./templates/default/images/folder_dl.gif Обучающее видео Алекс Мэй | Сексуальные позиции. Для максимального наслаждения (2013) [CamRip] Omen
1 | 0

0 | 1894

201

2015-05-07 00:08
Omen Последнее
./templates/default/images/folder_dl.gif Обучающее видео Алекс Мэй | Женская академия секса (2012) [H.264] CamRip Omen
1 | 0

0 | 1162

91

2015-06-04 12:02
Omen Последнее
./templates/default/images/folder_dl.gif Отечественные cериалы Меч 2 (Пролог + Серии 01—20 из 20) (Алексей Луканев) [2015, криминал, SATRip] O.S.A.
1 | 0

0 | 1104

35

2015-06-15 18:54
O.S.A. Последнее
Показать сообщения:    
Ответить на тему

Текущее время: Сегодня 19:06

Часовой пояс: GMT + 3



Вы не можете начинать темы
Вы не можете отвечать на сообщения
Вы не можете редактировать свои сообщения
Вы не можете удалять свои сообщения
Вы не можете голосовать в опросах
Вы не можете прикреплять файлы к сообщениям
Вы не можете скачивать файлы