Today is a free download without charge Download

Александр Пархоменко (1942) [H.264] DVDRip

Reply to topic
 
Author
Message

Omen ®

Longevity: 6 years 5 months

Posts: 171875

Торрент-статистика

Post 13-Jan-2013 10:26

[Quote]

-Александр Пархоменко (оригинальная полная версия) (1942) [H.264] DVDRip- Русское название: Александр Пархоменко (оригинальная полная версия)
Производство: Киевской и Ташкентской киностудий
Год выпуска: 1942
Жанр: Драма, военный, биографический
Описание фильма:
"Биографический рассказ о жизни полководца времен гражданской войны Александра Пархоменко (1886 - 1921). В 1918, году захватив Украину, немецкие оккупанты стремились использовать в своей борьбе гайдамаков, белогвардейцев и "зеленых". По приказу Ворошилова, Пархоменко прибывает в Царицын. В это же время немцы переходят в активное наступление. "Красные" батальоны вооружены плохо, однако, Пархоменко удается поднять их в атаку и обратить врага в бегство. Попутно красные кавалеристы уничтожают бандитские шайки..."
Режиссер: Леонид Луков
Актеры: Семён Гольдштаб (Сталин), Николай Боголюбов (Ворошилов), Александр Хвыля (Александр Пархоменко), Петр Алейников (Гайворон), Степан Каюков (Ламычев), Вера Шершнева (Лиза), Василий Зайчиков (Колоколов), Борис Чирков (Махно), Иван Новосельцев (Быков), Татьяна Окуневская (Быкова), Юрий Лавров (Анархист), Борис Андреев, Фаина Раневская
Продолжительность: 01:42:46

Видеокодек: MPEG-4 AVC/H.264
Битрейт видео: ~2051 Кбит/сек
Размер кадра: 720x576
Качество видео: DVDRip
Аудиокодек: AC3 2.0
Битрейт аудио: 192 Кбит/сек
Сэмпл

Знаете ли вы...

Леонид Луков был одним из тех советских кинорежиссёров, кто после "разоблачения культа личности" начал с энтузиазмом штамповать "новые режиссёрские версии" своих старых фильмов. Формальный повод у него был: снятая им в 1946 г. 2-я серия "Большой жизни" была подвергнута резкой - и, надо сказать, справедливой - критике и положена на полку. Уже после смерти Сталина, в 1958 г. фильм был всё же выпущен на экран; но слабость его была столь очевидной, что в 1963 г. Луков снова возвращается к картине, пытаясь монтажом исправить надуманную и растянутую ленту...
Картину "Александр Пархоменко" многие помнят по замечательному эпизоду выдающейся актрисы советского кино Фаины Раневской - исполненному жующей тапёршей романсу (муз. и сл. Н. Богословского). В историю отечественного кино вошла остро, гротескно сыгранная Б. Чирковым роль Нестора Махно. И, конечно, нельзя не вспомнить о том, что именно из этого фильма происходит одна из "старых песен о главном" - "Ты ждёшь, Лизавета, от друга привета".Здесь выложена полная, без сокращений оригинальная версия. Позже Луков не только выбросит немногочисленные кадры со Сталиным, но и довольно большой кусок без его участия, значитально сократив длинную сцену Пархоменко в тюрьме. В любом случае, ни из песни, ни из фильма лучше ничего не выкидывать, а знакомиться с документом эпохи в том виде, в каком он стал таковым.

MediaInfo:

Общее
Уникальный идентификатор : 187048550942668246653325675188934033493 (0x8CB83D93787885BBB710104510664055)
Полное имя : G:\!V\Александр Пархоменко (оригинальная полная версия)\Александр Пархоменко DVDRip(оригинальная полная версия)\Aleksandr Parkhomenko [H.264] DVDRip.mkv
Формат : Matroska
Версия формата : Version 4 / Version 2
Размер файла : 1,70 Гбайт
Продолжительность : 1 ч. 46 м.
Общий поток : 2289 Кбит/сек
Дата кодирования : UTC 2010-02-22 21:41:31
Программа кодирования : mkvmerge v5.9.0 ('On The Loose') built on Dec 9 2012 15:37:01
Библиотека кодирования : libebml v1.3.0 + libmatroska v1.4.0
Видео
Идентификатор : 1
Формат : AVC
Формат/Информация : Advanced Video Codec
Профиль формата : [url=mailto:[email protected]][email protected][/url]
Параметр CABAC формата : Нет
Параметр ReFrames формата : 2 кадра
Параметр GOP формата : M=1, N=12
Режим смешивания : Header stripping
Идентификатор кодека : V_MPEG4/ISO/AVC
Продолжительность : 1 ч. 46 м.
Битрейт : 2051 Кбит/сек
Ширина : 720 пикселей
Высота : 576 пикселей
Соотношение сторон : 4:3
Соотношение сторон в оригинале : 4:3
Режим частоты кадров : Постоянный
Частота кадров : 23,976 кадра/сек
Стандарт вещания : NTSC
Цветовое пространство : YUV
Субдискретизация насыщенности : 4:2:0
Битовая глубина : 8 бит
Тип развёртки : Прогрессивная
Бит/(Пиксели*Кадры) : 0.206
Размер потока : 1,52 Гбайт (90%)
Заголовок : 2053 Кбит/сек
Язык : Russian
Default : Да
Forced : Нет
Основные цвета : BT.601 NTSC
Характеристики трансфера : BT.601
Коэффициенты матрицы : BT.601
Аудио
Идентификатор : 2
Формат : AC-3
Формат/Информация : Audio Coding 3
Расширение режима : CM (complete main)
Параметр Endianness формата : Big
Режим смешивания : Header stripping
Идентификатор кодека : A_AC3
Продолжительность : 1 ч. 46 м.
Вид битрейта : Постоянный
Битрейт : 192 Кбит/сек
Каналы : 2 канала
Расположение каналов : Front: L R
Частота : 48,0 КГц
Битовая глубина : 16 бит
Метод сжатия : С потерями
Задержка видео : 4 мс.
Размер потока : 146 Мбайт (8%)
Язык : Russian
Default : Да
Forced : Нет
Скриншоты:
         
         
Время раздачи: С 09 до 23:00
Other forum [Profile] [PM]
Similar theme
Forum Topic Author Torrent Replies Last Post
./templates/default/images/folder_dl.gif Обучающее видео Александр Свет | Профессиональная обработка RAW в Capture One Pro 7 (2013) [PCRec] UndegraundMen
1 | 0

0 | 3747

50

2013-11-28 23:01
UndegraundMen Latest
./templates/default/images/folder_dl.gif Философия и религия Ксендзюк Алексей - Тайна Карлоса Кастанеды. Анализ магического знания дона Хуана [dunlocker, (ЛИ), 2014 г., 128 kbps, MP3] Omen
1 | 0

0 | 707

2

2014-06-14 20:00
Omen Latest
./templates/default/images/folder_dl.gif Обучающее видео [Profileschool] Алексей Шадрин | Управление визуальным объемом и резкостью изображений (2014) PCRec Omen
1 | 0

0 | 3163

133

2014-11-14 15:38
Omen Latest
./templates/default/images/folder_dl.gif Обучающее видео Александр Медведев | 10 ноу-хау на съёмке, до которых вы не додумались (2013) PCRec Omen
1 | 0

0 | 1345

38

2015-04-03 20:51
Omen Latest
./templates/default/images/folder_dl.gif Обучающее видео Алекс Мэй | Как организовать секс с двумя девушками (2011) CamRip Omen
1 | 0

0 | 1429

89

2015-05-19 18:27
Omen Latest
./templates/default/images/folder_dl.gif Психология, Тренинг, Саморазвитие Александр Григорьев | Анатомия рационального поведения (2019) [PDF] }{@R0N
1 | 0

0 | 440

1

2019-03-17 22:54
}{@R0N Latest
Display posts from previous:    
Reply to topic

The time now is: Today 05:34

All times are GMT + 3 Hours



You cannot post new topics in this forum
You cannot reply to topics in this forum
You cannot edit your posts in this forum
You cannot delete your posts in this forum
You cannot vote in polls in this forum
You cannot attach files in this forum
You cannot download files in this forum