Сегодня идет свободное скачивание без начисления Download

Александр Пархоменко (1942) DVD5

Ответить на тему
 
Автор
Сообщение

Omen ®

Стаж: 5 лет 10 месяцев

Сообщений: 184329

Торрент-статистика

Пост 13-Янв-2013 10:26

[Цитировать]

-Александр Пархоменко (оригинальная полная версия) (1942) DVD5- Русское название: Александр Пархоменко (оригинальная полная версия)
Производство: Киевской и Ташкентской киностудий
Год выпуска: 1942
Жанр: Драма, военный, биографический
Описание фильма:
"Биографический рассказ о жизни полководца времен гражданской войны Александра Пархоменко (1886 - 1921). В 1918, году захватив Украину, немецкие оккупанты стремились использовать в своей борьбе гайдамаков, белогвардейцев и "зеленых". По приказу Ворошилова, Пархоменко прибывает в Царицын. В это же время немцы переходят в активное наступление. "Красные" батальоны вооружены плохо, однако, Пархоменко удается поднять их в атаку и обратить врага в бегство. Попутно красные кавалеристы уничтожают бандитские шайки..."
Режиссер: Леонид Луков
Актеры: Семён Гольдштаб (Сталин), Николай Боголюбов (Ворошилов), Александр Хвыля (Александр Пархоменко), Петр Алейников (Гайворон), Степан Каюков (Ламычев), Вера Шершнева (Лиза), Василий Зайчиков (Колоколов), Борис Чирков (Махно), Иван Новосельцев (Быков), Татьяна Окуневская (Быкова), Юрий Лавров (Анархист), Борис Андреев, Фаина Раневская
Продолжительность: 01:46:24

Видеокодек: MPEG-2
Битрейт видео: ~5155 Кбит/сек
Размер кадра: 720x576
Качество видео: DVD5
Аудиокодек: AC3 2.0
Битрейт аудио: 192 Кбит/сек

Знаете ли вы...

Леонид Луков был одним из тех советских кинорежиссёров, кто после "разоблачения культа личности" начал с энтузиазмом штамповать "новые режиссёрские версии" своих старых фильмов. Формальный повод у него был: снятая им в 1946 г. 2-я серия "Большой жизни" была подвергнута резкой - и, надо сказать, справедливой - критике и положена на полку. Уже после смерти Сталина, в 1958 г. фильм был всё же выпущен на экран; но слабость его была столь очевидной, что в 1963 г. Луков снова возвращается к картине, пытаясь монтажом исправить надуманную и растянутую ленту...
Картину "Александр Пархоменко" многие помнят по замечательному эпизоду выдающейся актрисы советского кино Фаины Раневской - исполненному жующей тапёршей романсу (муз. и сл. Н. Богословского). В историю отечественного кино вошла остро, гротескно сыгранная Б. Чирковым роль Нестора Махно. И, конечно, нельзя не вспомнить о том, что именно из этого фильма происходит одна из "старых песен о главном" - "Ты ждёшь, Лизавета, от друга привета".Здесь выложена полная, без сокращений оригинальная версия. Позже Луков не только выбросит немногочисленные кадры со Сталиным, но и довольно большой кусок без его участия, значитально сократив длинную сцену Пархоменко в тюрьме. В любом случае, ни из песни, ни из фильма лучше ничего не выкидывать, а знакомиться с документом эпохи в том виде, в каком он стал таковым.Александр Пархоменко погиб 03.01.1921 года. Место смерти: с. Вузовцы, ныне Жашковского р-на Черкасской обл., Украина.

DVDInfo:

Title: Александр Пархоменко DVD5(оригинальная полная версия)
Size: 4.20 Gb ( 4 403 118,00 KBytes ) - DVD-5
Enabled regions: 1, 2, 3, 4, 5, 6, 7, 8
VTS_01 :
Play Length: 01:46:24
Video: PAL 4:3 (720x576) VBR
Audio:
English (Dolby AC3, 2 ch)
* Menus Information *
VIDEO_TS Menu
Video:
PAL 4:3 (720x576) VBR
Language Unit :
VTS_01 Menu
Video:
PAL 4:3 (720x576) VBR
Audio:
Not specified (Dolby AC3, 2 ch)
Language Unit :
Root Menu

MediaInfo:

Общее
Полное имя : H:\!V\Александр Пархоменко (оригинальная полная версия)\Александр Пархоменко DVD5(оригинальная полная версия)\VIDEO_TS\VTS_01_1.VOB
Формат : MPEG-PS
Размер файла : 1024 Мбайт
Продолжительность : 26 м.
Режим общего битрейта : Переменный
Общий поток : 5456 Кбит/сек
Библиотека кодирования : (c) 1998-2010 Womble Multimedia, Inc. / MPEG Video Wizard DVD 5.0.0.114 (01/2010) / Dec 10 2010
Видео
Идентификатор : 224 (0xE0)
Формат : MPEG Video
Версия формата : Version 2
Профиль формата : [email protected]
Параметр BVOP формата : Да
Параметр матрицы формата : Выборочная
Параметр GOP формата : M=3, N=15
Продолжительность : 26 м.
Вид битрейта : Переменный
Битрейт : 5155 Кбит/сек
Максимальный битрейт : 9000 Кбит/сек
Ширина : 720 пикселей
Высота : 576 пикселей
Соотношение сторон : 4:3
Частота кадров : 25,000 кадров/сек
Стандарт вещания : PAL
Цветовое пространство : YUV
Субдискретизация насыщенности : 4:2:0
Битовая глубина : 8 бит
Тип развёртки : Прогрессивная
Метод сжатия : С потерями
Бит/(Пиксели*Кадры) : 0.497
Размер потока : 968 Мбайт (94%)
Выравнивание : (c) 1998-2010 Womble Multimedia, Inc. / MPEG Video Wizard DVD 5.0.0.114 (01/2010) / Dec 10 2010
Заголовок : (c) 1998-2010 Womble Multimedia, Inc. / MPEG Video Wizard DVD 5.0.0.114 (01/2010) / Dec 10 2010
Библиотека кодирования : (c) 1998-2010 Womble Multimedia, Inc. / MPEG Video Wizard DVD 5.0.0.114 (01/2010) / Dec 10 2010
Основные цвета : BT.601 PAL
Характеристики трансфера : BT.470 System B, BT.470 System G
Коэффициенты матрицы : FCC 73.682
Аудио
Идентификатор : 189 (0xBD)-128 (0x80)
Формат : AC-3
Формат/Информация : Audio Coding 3
Расширение режима : CM (complete main)
Параметр Endianness формата : Big
Режим смешивания : DVD-Video
Продолжительность : 26 м.
Вид битрейта : Постоянный
Битрейт : 192 Кбит/сек
Каналы : 2 канала
Расположение каналов : Front: L R
Частота : 48,0 КГц
Битовая глубина : 16 бит
Метод сжатия : С потерями
Задержка видео : -80 мс.
Размер потока : 36,0 Мбайт (4%)
Меню

MenuDVD:

   
Скриншоты:
         
         
Время раздачи: С 09 до 23:00
Александр Пархоменко на NNM-CLUB
Вне форума [Профиль] [ЛС]
Похожие темы
Форум Тема Автор Торрент Отв. Посл. сообщение
./templates/default/images/folder_dl.gif Приключения, детектив, боевик, триллер Алексеев Сергей - Удар "Молнии" [Литвинова Наталия, 2012, 96 kbps, MP3] Omen
1 | 0

0 | 938

6

2012-12-11 05:28
Omen Последнее
./templates/default/images/folder_dl.gif Обучающее видео Александр Тулупов | Отрисовка света на фото в Фотошопе в стиле Silent Hill [2013] [PCRec] UndegraundMen
1 | 0

0 | 3111

37

2013-04-09 00:00
UndegraundMen Последнее
./templates/default/images/folder_dl.gif Обучающее видео Александр Свет | Профессиональная обработка RAW в Capture One Pro 7 (2013) [PCRec] UndegraundMen
1 | 0

0 | 3030

48

2013-11-28 23:01
UndegraundMen Последнее
./templates/default/images/folder_dl.gif Обучающее видео [Profileschool] Алексей Шадрин | Фундаментальная цветокоррекция фотографических изображений (2014) PCRec Omen
1 | 0

0 | 2691

96

2015-01-07 14:53
Omen Последнее
./templates/default/images/folder_dl.gif Обучающее видео [Profileschool] Алексей Шадрин | Секреты современного искусства - Марк Шагал (2015) PCRec Omen
1 | 0

0 | 1217

33

2015-04-06 16:23
Omen Последнее
./templates/default/images/folder_dl.gif Обучающее видео [Profileschool] Алексей Шадрин | Пленочная фотография: за и против (Алексей Шадрин)[ 2015.,Обучающее видео]PCRec sashau
1 | 0

0 | 2030

27

2015-04-13 04:16
sashau Последнее
./templates/default/images/folder_dl.gif Обучающее видео Алекс Мэй | Сексуальные позиции. Для максимального наслаждения (2013) [CamRip] Omen
1 | 0

0 | 1698

201

2015-05-07 00:08
Omen Последнее
./templates/default/images/folder_dl.gif Обучающее видео Алекс Мэй - Секреты точки Джи [2008] DVD5 Omen
1 | 0

0 | 1748

217

2015-05-07 09:00
Omen Последнее
./templates/default/images/folder_dl.gif Обучающее видео Александр Амбалов | Цветкор в Premiere (2017) PCRec Omen
1 | 0

0 | 429

6

2016-03-09 06:10
Omen Последнее
./templates/default/images/folder_dl.gif Обучающее видео Александр Медведев | Фотография по полкам. Свет. Часть 2 (2016) PCRec [H.264/1080p] Omen
1 | 0

0 | 400

7

2016-03-09 15:01
Omen Последнее
Показать сообщения:    
Ответить на тему

Текущее время: Сегодня 04:50

Часовой пояс: GMT + 3



Вы не можете начинать темы
Вы не можете отвечать на сообщения
Вы не можете редактировать свои сообщения
Вы не можете удалять свои сообщения
Вы не можете голосовать в опросах
Вы не можете прикреплять файлы к сообщениям
Вы не можете скачивать файлы