Today is a free download without charge Download

Капитан первого ранга (1958) SATRip

Reply to topic
 
Author
Message

Omen ®

Longevity: 6 years 5 months

Posts: 171875

Торрент-статистика

Post 13-Jan-2013 10:26

[Quote]

-Капитан первого ранга (1958) SATRip- Русское название: Капитан первого ранга
Производство: Таллинфильм
Год выпуска: 1958
Жанр: Драма, Военный
Описание фильма:
По мотивам одноименного романа А.С.Новикова-Прибоя "Капитан первого ранга".Много мытарств прошёл Захар Псалтырёв в царском флоте, где мордобой и издевательства над человеком вошли в обычай. Только благодаря природному уму и упорству малограмотный крестьянский парень сумел избежать участи многих своих товарищей, спившихся, потерявших человеческое достоинство.
Капитан 1-го ранга Лезвин (Борис Ливанов), командир крейсера "Святослав", сам задыхающийся в тяжёлой атмосфере царского самодержавия, по-отечески полюбил своего вестового за его простую русскую душу, сметливый ум, любовь к родине и ненависть к угнетению. Многому научился Захар у Лезвина, но вскоре им пришлось расстаться. Захар становится активным подпольщиком-большевиком.
В борьбе и мирном труде прошли годы войн и революций. Настал день, когда матрос Захар Псалтырёв возвращается на свой корабль капитаном 1-го ранга и становится его командиром.
Режиссер: Александр Мандрыкин
Актеры: Борис Ливанов, Михаил Орлов, Владимир Емельянов, Олев Эскола, Нинель Мышкова, Галина Инютина, Эве Киви, Аста Виханди, Борис Жуковский, Валентин Архипенко, Вячеслав Сирин, Михаил Дубрава
Продолжительность: 01:30:40

Видеокодек: Xvid
Битрейт видео: ~1383 Кбит/сек
Размер кадра: 720x432
Качество видео: SATRip
Аудиокодек: AC3 2.0
Битрейт аудио: 224 Кбит/сек
Субтитры: неотключаемые на эстонском языке

MediaInfo:

Общее
Полное имя : G:\new 092012\!102\Капитан первого ранга\kapitan_pervogo_ranga.avi
Формат : AVI
Формат/Информация : Audio Video Interleave
Размер файла : 1,02 Гбайт
Продолжительность : 1 ч. 30 м.
Общий поток : 1617 Кбит/сек
Программа кодирования : VirtualDubMod 1.5.4.1 (build 2178/release)
Библиотека кодирования : VirtualDub build 24478/release
Видео
Идентификатор : 0
Формат : MPEG-4 Visual
Профиль формата : Advanced [email protected]
Параметр BVOP формата : 1
Параметр QPel формата : Нет
Параметр GMC формата : Без точки перехода
Параметр матрицы формата : Выборочная
Идентификатор кодека : XVID
Идентификатор кодека/Подсказка : XviD
Продолжительность : 1 ч. 30 м.
Битрейт : 1383 Кбит/сек
Ширина : 720 пикселей
Высота : 432 пикселя
Соотношение сторон : 1,667
Частота кадров : 25,000 кадров/сек
Цветовое пространство : YUV
Субдискретизация насыщенности : 4:2:0
Битовая глубина : 8 бит
Тип развёртки : Прогрессивная
Метод сжатия : С потерями
Бит/(Пиксели*Кадры) : 0.178
Размер потока : 897 Мбайт (86%)
Библиотека кодирования : XviD 1.1.2 (UTC 2006-11-01)
Аудио
Идентификатор : 1
Формат : MPEG Audio
Версия формата : Version 1
Профиль формата : Layer 3
Режим : Joint stereo
Расширение режима : MS Stereo
Идентификатор кодека : 55
Идентификатор кодека/Подсказка : MP3
Продолжительность : 1 ч. 30 м.
Вид битрейта : Постоянный
Битрейт : 224 Кбит/сек
Каналы : 2 канала
Частота : 48,0 КГц
Метод сжатия : С потерями
Размер потока : 145 Мбайт (14%)
Выравнивание : Соединение по промежуткам
Продолжительность промежутка : 40 мс. (1,00 видеокадр)
Время предзагрузки промежутка : 504 мс.
Библиотека кодирования : LAME3.97
Настройки программы : -m j -V 4 -q 2 -lowpass 19.4 -b 224
Скриншоты:
         
Other forum [Profile] [PM]
Display posts from previous:    
Reply to topic

The time now is: Today 05:17

All times are GMT + 3 Hours



You cannot post new topics in this forum
You cannot reply to topics in this forum
You cannot edit your posts in this forum
You cannot delete your posts in this forum
You cannot vote in polls in this forum
You cannot attach files in this forum
You cannot download files in this forum