Сегодня идет свободное скачивание без начисления Download

Костёр бессмертия (1956) VHSRip

Ответить на тему
 
Автор
Сообщение

Omen ®

Стаж: 5 лет 10 месяцев

Сообщений: 184329

Торрент-статистика

Пост 13-Янв-2013 10:26

[Цитировать]

-Костёр бессмертия (1956) VHSRip- Русское название: Костёр бессмертия
Год выпуска: 1956
Жанр: Исторический, биографический
Описание фильма:
Фильм о жизни и деятельности итальянского философа-материалиста эпохи Возрождения Джордано Бруно (1548-1600).
1576 год. Монах Джордано Бруно, восстав против основ религиозного учения, бежит из монастыря. Подвергаясь опасности быть схваченным инквизицией, Бруно покидает родную Италию. Он странствует по городам Европы, обличая религиозный фанатизм и жестокость папской власти. Своими разящими памфлетами и научными трудами Бруно сокрушает библейскую легенду о сотворении мира. Папские стражники тяжело ранят Бруно, принявшего участие в крестьянском восстании, но простые люди спасают ученого. В своих долгих скитаниях бруно тоскует по родной Италии. Тайные посланцы Ватикана обманом завлекают ученого на родину и тут же заключают в темницу...
Режиссер: Абрам Народицкий
Актеры: Владимир Дружников, Давид Волосов-Мерин, А. Гируцкая, Олег Жаков, Александр Мгебров, Юрий Кротенко, Виктор Халатов, Эмилия Мильтон, Владимир Таскин, Алексей Розанов, Дмитрий Милютенко, Юрий Лавров, Павел Шпрингфельд, Георгий Бударов и др.
Продолжительность: 01:37:27

Видеокодек: DivX 5
Битрейт видео: ~1806 kb/s
Размер кадра: 704 x 528
Качество видео: VHSRip
Аудиокодек: AC3 2.0
Битрейт аудио: 192 kb/s

MediaInfo

Общее
Полное имя : Koster.bessmertiya.(1955).VHSRip.avi
Формат : AVI
Формат/Информация : Audio Video Interleave
Размер файла : 1,37 Гбайт
Продолжительность : 1 ч. 37 м.
Общий поток : 2008 Кбит/сек
Программа кодирования : VirtualDubMod 1.5.10.2 (build 2540/release)
Видео
Идентификатор : 0
Формат : MPEG-4 Visual
Параметр BVOP формата : Нет
Параметр QPel формата : Нет
Параметр GMC формата : Без точки перехода
Параметр матрицы формата : Default (H.263)
Идентификатор кодека : DX50
Идентификатор кодека/Подсказка : DivX 5
Продолжительность : 1 ч. 37 м.
Битрейт : 1806 Кбит/сек
Ширина : 704 пикселя
Высота : 528 пикселей
Соотношение сторон : 4:3
Частота кадров : 25,000 кадров/сек
Цветовое пространство : YUV
Субдискретизация насыщенности : 4:2:0
Битовая глубина : 8 бит
Тип развёртки : Прогрессивная
Метод сжатия : С потерями
Бит/(Пиксели*Кадры) : 0.194
Размер потока : 1,23 Гбайт (90%)
Библиотека кодирования : DivX 5.2.1 (WaffleDay) (UTC 2004-09-08)
Аудио
Идентификатор : 1
Формат : AC-3
Формат/Информация : Audio Coding 3
Расширение режима : CM (complete main)
Параметр Endianness формата : Big
Идентификатор кодека : 2000
Продолжительность : 1 ч. 37 м.
Вид битрейта : Постоянный
Битрейт : 192 Кбит/сек
Каналы : 2 канала
Расположение каналов : Front: L R
Частота : 48,0 КГц
Битовая глубина : 16 бит
Метод сжатия : С потерями
Размер потока : 134 Мбайт (10%)
Выравнивание : Разделение по промежуткам
Продолжительность промежутка : 40 мс. (1,00 видеокадр)
Время предзагрузки промежутка : 500 мс.
Скриншоты:          Время раздачи: С 13:00 до 21:00 (до 5 скачавших)Приятного просмотра!
Вне форума [Профиль] [ЛС]
Показать сообщения:    
Ответить на тему

Текущее время: Сегодня 14:14

Часовой пояс: GMT + 3



Вы не можете начинать темы
Вы не можете отвечать на сообщения
Вы не можете редактировать свои сообщения
Вы не можете удалять свои сообщения
Вы не можете голосовать в опросах
Вы не можете прикреплять файлы к сообщениям
Вы не можете скачивать файлы