Сегодня идет свободное скачивание без начисления Download

Точка отсчета (1979) SATRip

Ответить на тему
 
Автор
Сообщение

Omen ®

Стаж: 6 лет

Сообщений: 184329

Торрент-статистика

Пост 13-Янв-2013 10:26

[Цитировать]

-Точка отсчета (1979) SATRip- Русское название: Точка отсчета
Год выпуска: 1979
Жанр: Военный, Драма
Описание фильма:
Бывший хулиган, от природы наделенный прекрасными физическими данными, стал безоговорочным лидером среди призывников. Очень скоро он добился звания младшего сержанта, и ему доверили отделение. Но когда наступили боевые учения, блатной лидер оказался беспомощным и бесполезным в достижении общей цели.
Режиссер: Виктор Туров
Актеры: Петр Юрченков, Юрий Демич, Ольга Лысенко, Анатолий Ромашин, Николай Кочегаров, Василий Петренко, Андрей Градов
Продолжительность: 01:36:07

Видеокодек: Xvid
Битрейт видео: ~1838 Кбит/сек
Размер кадра: 704x528
Качество видео: SATRip
Аудиокодек: MP3, 2 ch
Битрейт аудио: 192 Кбит/сек

MediaInfo:

Общее
Полное имя : G:\new 092012\!\Точка отсчёта\Точка отсчёта.avi
Формат : AVI
Формат/Информация : Audio Video Interleave
Размер файла : 1,37 Гбайт
Продолжительность : 1 ч. 36 м.
Общий поток : 2040 Кбит/сек
Программа кодирования : VirtualDubModRus 1.5.10.2 (build 2542/release)
Библиотека кодирования : Boilsoft AVI tool build 30012/release
Видео
Идентификатор : 0
Формат : MPEG-4 Visual
Профиль формата : Advanced [email protected]
Параметр BVOP формата : 2
Параметр QPel формата : Нет
Параметр GMC формата : Без точки перехода
Параметр матрицы формата : Default (H.263)
Режим смешивания : Сжатый битовый поток
Идентификатор кодека : XVID
Идентификатор кодека/Подсказка : XviD
Продолжительность : 1 ч. 36 м.
Битрейт : 1838 Кбит/сек
Ширина : 704 пикселя
Высота : 528 пикселей
Соотношение сторон : 4:3
Частота кадров : 25,000 кадров/сек
Цветовое пространство : YUV
Субдискретизация насыщенности : 4:2:0
Битовая глубина : 8 бит
Тип развёртки : Прогрессивная
Метод сжатия : С потерями
Бит/(Пиксели*Кадры) : 0.198
Размер потока : 1,23 Гбайт (90%)
Библиотека кодирования : XviD 63
Аудио
Идентификатор : 1
Формат : MPEG Audio
Версия формата : Version 1
Профиль формата : Layer 3
Идентификатор кодека : 55
Идентификатор кодека/Подсказка : MP3
Продолжительность : 1 ч. 36 м.
Вид битрейта : Постоянный
Битрейт : 192 Кбит/сек
Каналы : 2 канала
Частота : 48,0 КГц
Метод сжатия : С потерями
Размер потока : 132 Мбайт (9%)
Выравнивание : Соединение по промежуткам
Продолжительность промежутка : 40 мс. (1,00 видеокадр)
Время предзагрузки промежутка : 504 мс.
Скриншоты:
         
         
Время раздачи: C 09:00 до 23:00
Вне форума [Профиль] [ЛС]
Похожие темы
Форум Тема Автор Торрент Отв. Посл. сообщение
./templates/default/images/folder_dl.gif Программы для интернет и сетей Радиоточка Плюс 15.5 + Portable [Ru] XP1971
1 | 0

0 | 6398

9

2017-02-07 12:17
XP1971 Последнее
Показать сообщения:    
Ответить на тему

Текущее время: Сегодня 22:56

Часовой пояс: GMT + 3



Вы не можете начинать темы
Вы не можете отвечать на сообщения
Вы не можете редактировать свои сообщения
Вы не можете удалять свои сообщения
Вы не можете голосовать в опросах
Вы не можете прикреплять файлы к сообщениям
Вы не можете скачивать файлы