Сегодня идет свободное скачивание без начисления Download

Исполнение желаний (1973) SATRip

Ответить на тему
 
Автор
Сообщение

Omen ®

Стаж: 6 лет 2 месяца

Сообщений: 184294

Торрент-статистика

Пост 13-Янв-2013 10:26

[Цитировать]

-Исполнение желаний (1973) SATRip- Русское название: Исполнение желаний
Год выпуска: 1973
Жанр: Драма
Описание фильма:
По одноименному роману В.Каверина. Трудный путь студента-филолога Трубачевского в науку, путь к открытию, к пониманию ответственнейшей роли ученого в обществе, к пониманию того, что эта роль под силу только человеку с чистой совестью, раскрывается в остром, психологически напряженном сюжете, в динамичных перипетиях борьбы, в сложном переплете человеческих отношений.
Режиссер: Светлана Дружинина
Актеры: Евгений Лебедев, Иннокентий Смоктуновский, Николай Ерёменко (младший), Наталья Бондарчук, Лариса Лужина, Евгений Жариков, Галикс (Георгий) Колчицкий, Елена Максимова, Юрий Назаров, Владимир Носик, Борис Руднев, Чеслав Сушкевич, Евгений Тетерин
Продолжительность: 01:34:30

Видеокодек: Xvid
Битрейт видео: ~1936 Кбит/сек
Размер кадра: 704x288
Качество видео: SATRip
Аудиокодек: MP3, 2сh
Битрейт аудио: 128 Кбит/сек

MediaInfo:

Общее
Полное имя : G:\new 092012\!\Исполнение желаний 1973\Исполнение желаний 1973 SatRip\Исполнение желаний_SatRip.avi
Формат : AVI
Формат/Информация : Audio Video Interleave
Размер файла : 1,37 Гбайт
Продолжительность : 1 ч. 34 м.
Общий поток : 2074 Кбит/сек
Название фильма : Исполнение желаний.SatRip for nnm
Программа кодирования : VirtualDubMod 1.5.10.3 | www.virtualdub-fr.org || (build 2550/release) VirtualDubMod build 2550/release
Библиотека кодирования : Boilsoft AVI tool build 30012/release
Примечание : SatRip by live19 / ICQ 267164203 / [url=mailto:[email protected]][email protected][/url]
Видео
Идентификатор : 0
Формат : MPEG-4 Visual
Профиль формата : Advanced [email protected]
Параметр BVOP формата : 1
Параметр QPel формата : Нет
Параметр GMC формата : Без точки перехода
Параметр матрицы формата : Default (MPEG)
Идентификатор кодека : XVID
Идентификатор кодека/Подсказка : XviD
Продолжительность : 1 ч. 34 м.
Битрейт : 1936 Кбит/сек
Ширина : 704 пикселя
Высота : 288 пикселей
Соотношение сторон : 2,40:1
Частота кадров : 25,000 кадров/сек
Цветовое пространство : YUV
Субдискретизация насыщенности : 4:2:0
Битовая глубина : 8 бит
Тип развёртки : Прогрессивная
Метод сжатия : С потерями
Бит/(Пиксели*Кадры) : 0.382
Размер потока : 1,28 Гбайт (93%)
Библиотека кодирования : XviD 1.2.1 (UTC 2008-12-04)
Аудио
Идентификатор : 1
Формат : MPEG Audio
Версия формата : Version 1
Профиль формата : Layer 3
Идентификатор кодека : 55
Идентификатор кодека/Подсказка : MP3
Продолжительность : 1 ч. 34 м.
Вид битрейта : Постоянный
Битрейт : 128 Кбит/сек
Каналы : 2 канала
Частота : 48,0 КГц
Метод сжатия : С потерями
Размер потока : 86,5 Мбайт (6%)
Выравнивание : Соединение по промежуткам
Продолжительность промежутка : 40 мс. (1,00 видеокадр)
Время предзагрузки промежутка : 504 мс.
Библиотека кодирования : LAME3.98r
Настройки программы : -m s -V 4 -q 2 -lowpass 17 -b 128
Скриншоты:
         
         
Время раздачи: С 09:00 до 23:00
Вне форума [Профиль] [ЛС]
Похожие темы
Форум Тема Автор Торрент Отв. Посл. сообщение
./templates/default/images/folder_dl.gif Обучающее видео Учебный центр 1C | Использование прикладного решения 1С Розница 8.2 Редакция 2 (2015) PCRec Varius
1 | 0

0 | 1500

42

2015-07-16 05:16
Varius Последнее
./templates/default/images/folder_dl.gif Обучающее видео Меркулов Алексей | Использование AutoCAD на 100% 2.0 (2015) PCRec [H.264/720p] Omen
1 | 0

1 | 2304

101

2017-11-25 21:03
aybulat Последнее
./templates/default/images/folder_dl.gif Психология, Тренинг, Саморазвитие Джонатан Хэнкок | Как тренировать память. Не думайте о памяти – лучше используйте ее на все сто! (2013) [FB2] }{@R0N
1 | 0

0 | 1870

4

2017-12-24 21:46
}{@R0N Последнее
./templates/default/images/folder_dl.gif Психология, Тренинг, Саморазвитие Дэниел Гонсалес; Элис Маквей | Мегатренинг для развития мозга, воли, памяти. Упражнения для ума, которые используют миллионеры и чемпионы (2018) [MP3] }{@R0N
1 | 0

0 | 292

2

2018-12-27 22:49
}{@R0N Последнее
Показать сообщения:    
Ответить на тему

Текущее время: Сегодня 07:23

Часовой пояс: GMT + 3



Вы не можете начинать темы
Вы не можете отвечать на сообщения
Вы не можете редактировать свои сообщения
Вы не можете удалять свои сообщения
Вы не можете голосовать в опросах
Вы не можете прикреплять файлы к сообщениям
Вы не можете скачивать файлы