Today is a free download without charge Download

Пассажир с "Экватора" (1970) TVRip

Reply to topic
 
Author
Message

Omen ®

Longevity: 6 years 7 months

Posts: 181103

Торрент-статистика

Post 13-Jan-2013 10:25

[Quote]

-Пассажир с "Экватора" (1970) TVRip- Русское название: Пассажир с "Экватора"
Год выпуска: 1970
Жанр: Приключения, шпионский
Описание фильма:
Мальчик Ильмар плывёт вместе со своими друзьями на большом теплоходе под названием «Экватор» на летний отдых в пионерский лагерь на берегу Чёрного моря. Он становится случайным свидетелем того, как иностранный пассажир - "коммерсант", мистер Пипп - тайком спускает в море радиобуй. Заметив мальчика, Пипп сбрасывает его в море...
Режиссер: Александр Курочкин
композитор Микаэл Таривердиев
Актеры: Юри Крюков, Юра Пюсс, Слава Цюпа, Витя Морус, Таня Горячкина, Игорь Пушаков, Сережа Макридин, Михаил Волков, Александр Мартынов, Арина Алейникова, Владимир Кенигсон, Юрий Чекулаев, Николай Горлов, Тамара Яренко, Люда Алпатова, Леонид Довлатов, Леонид Окунев, Ира Басаева, Рома Грубман, Вова Казачков, Вова Курочкин, Ильмар Негго, Вова Пшеничный, Саша Турков
Продолжительность: 01:16:07

Видеокодек: MPEG-2
Битрейт видео: ~4075 kb/s
Размер кадра: 720 x 576
Качество видео: TVRip
Аудиокодек: MP2, 2 ch
Битрейт аудио: 192 kb/s

MediaInfo

Общее
Полное имя : Пассажир с Экватора.1970.TVRip.mpg
Формат : MPEG-PS
Размер файла : 2,32 Гбайт
Продолжительность : 1 ч. 16 м.
Режим общего битрейта : Переменный
Общий поток : 4354 Кбит/сек
Библиотека кодирования : (c) 1998-2011 Womble Multimedia, Inc. / MPEG Video Wizard DVD 5.0.1.100 (03/2011) / May 27 2011
Видео
Идентификатор : 224 (0xE0)
Формат : MPEG Video
Версия формата : Version 2
Профиль формата : [email protected]
Параметр BVOP формата : Да
Параметр матрицы формата : Выборочная
Параметр GOP формата : Variable
Продолжительность : 1 ч. 16 м.
Вид битрейта : Переменный
Битрейт : 4075 Кбит/сек
Максимальный битрейт : 15,0 Мбит/сек
Ширина : 720 пикселей
Высота : 576 пикселей
Соотношение сторон : 4:3
Частота кадров : 25,000 кадров/сек
Стандарт вещания : PAL
Цветовое пространство : YUV
Субдискретизация насыщенности : 4:2:0
Битовая глубина : 8 бит
Метод сжатия : С потерями
Бит/(Пиксели*Кадры) : 0.393
Размер потока : 2,17 Гбайт (94%)
Выравнивание : (c) 1998-2011 Womble Multimedia, Inc. / MPEG Video Wizard DVD 5.0.1.100 (03/2011) / May 27 2011
Заголовок : (c) 1998-2011 Womble Multimedia, Inc. / MPEG Video Wizard DVD 5.0.1.100 (03/2011) / May 27 2011
Библиотека кодирования : (c) 1998-2011 Womble Multimedia, Inc. / MPEG Video Wizard DVD 5.0.1.100 (03/2011) / May 27 2011
Аудио
Идентификатор : 192 (0xC0)
Формат : MPEG Audio
Версия формата : Version 1
Профиль формата : Layer 2
Продолжительность : 1 ч. 16 м.
Вид битрейта : Постоянный
Битрейт : 192 Кбит/сек
Каналы : 2 канала
Частота : 48,0 КГц
Метод сжатия : С потерями
Размер потока : 105 Мбайт (4%)
Меню
Скриншоты:          Время раздачи: С 13:00 до 21:00 (до 5 скачавших)Приятного просмотра!
Other forum [Profile] [PM]
Display posts from previous:    
Reply to topic

The time now is: Today 23:41

All times are GMT + 3 Hours



You cannot post new topics in this forum
You cannot reply to topics in this forum
You cannot edit your posts in this forum
You cannot delete your posts in this forum
You cannot vote in polls in this forum
You cannot attach files in this forum
You cannot download files in this forum