Сегодня идет свободное скачивание без начисления Download

Только три ночи (1969) SATRip

Ответить на тему
 
Автор
Сообщение

Omen ®

Стаж: 5 лет 10 месяцев

Сообщений: 184329

Торрент-статистика

Пост 13-Янв-2013 10:25

[Цитировать]

-Только три ночи (1969) SATRip- Русское название: Только три ночи
Год выпуска: 1969
Жанр: Мелодрама
Описание фильма:
По рассказу А. Борщаговского «Ночь».Трогательная, слегка наивная история деревенской любви.У Любы есть ребенок, у Николая — жена. Николай, став киномехаником, теперь, раз в неделю привозит кино в деревню Бабино, где живет Люба. Когда-то они любили друг друга, но Николай, неожиданно для всех, женился на другой и с тех пор старался не бывать в этой деревне. А теперь чувства нахлынули вновь, и оба не в состоянии сопротивляться этой любви…
Режиссер: Гавриил Егиазаров
Актеры: Олег Ефремов, Владимир Воробей, Николай Гринько,Нина Гуляева, Валерий Козинец, Ирина Короткова, Алексей Глазырин, Вера Кузнецова,Татьяна Бизяева-Вокач, Любовь Соколова
Продолжительность: 01:17:41

Видеокодек: Xvid
Битрейт видео: ~1499 Кбит/сек
Размер кадра: 720x310
Качество видео: SATRip
Аудиокодек: MP3, 2 ch
Битрейт аудио: 128 Кбит/сек

MediaInfo:

Общее
Полное имя : G:\new 092012\Только три ночи\Только три ночи.avi
Формат : AVI
Формат/Информация : Audio Video Interleave
Размер файла : 911 Мбайт
Продолжительность : 1 ч. 17 м.
Общий поток : 1640 Кбит/сек
Библиотека кодирования : Boilsoft AVI tool build 30012/release
Видео
Идентификатор : 0
Формат : MPEG-4 Visual
Профиль формата : [email protected]
Параметр BVOP формата : Нет
Параметр QPel формата : Нет
Параметр GMC формата : Без точки перехода
Параметр матрицы формата : Default (H.263)
Идентификатор кодека : XVID
Идентификатор кодека/Подсказка : XviD
Продолжительность : 1 ч. 17 м.
Битрейт : 1499 Кбит/сек
Ширина : 720 пикселей
Высота : 310 пикселей
Соотношение сторон : 2,35:1
Частота кадров : 25,000 кадров/сек
Цветовое пространство : YUV
Субдискретизация насыщенности : 4:2:0
Битовая глубина : 8 бит
Тип развёртки : Прогрессивная
Метод сжатия : С потерями
Бит/(Пиксели*Кадры) : 0.269
Размер потока : 833 Мбайт (91%)
Библиотека кодирования : XviD 1.2.1 (UTC 2008-12-04)
Аудио
Идентификатор : 1
Формат : MPEG Audio
Версия формата : Version 1
Профиль формата : Layer 3
Режим : Joint stereo
Расширение режима : MS Stereo
Идентификатор кодека : 55
Идентификатор кодека/Подсказка : MP3
Продолжительность : 1 ч. 17 м.
Вид битрейта : Постоянный
Битрейт : 128 Кбит/сек
Каналы : 2 канала
Частота : 48,0 КГц
Метод сжатия : С потерями
Размер потока : 71,1 Мбайт (8%)
Выравнивание : Соединение по промежуткам
Продолжительность промежутка : 24 мс. (0,60 видеокадр)
Время предзагрузки промежутка : 504 мс.
Библиотека кодирования : LAME3.98.2
Скриншоты:
         
         
Время раздачи: C 09:00 до 23:00
Вне форума [Профиль] [ЛС]
Показать сообщения:    
Ответить на тему

Текущее время: Сегодня 14:13

Часовой пояс: GMT + 3



Вы не можете начинать темы
Вы не можете отвечать на сообщения
Вы не можете редактировать свои сообщения
Вы не можете удалять свои сообщения
Вы не можете голосовать в опросах
Вы не можете прикреплять файлы к сообщениям
Вы не можете скачивать файлы