Сегодня идет свободное скачивание без начисления Download

Зигмунд Колосовский (1945) DVDRip

Ответить на тему
 
Автор
Сообщение

Omen ®

Стаж: 5 лет 10 месяцев

Сообщений: 184329

Торрент-статистика

Пост 13-Янв-2013 10:25

[Цитировать]

-Зигмунд Колосовский (1945) DVDRip- Русское название: Зигмунд Колосовский
Производство: Киевская киностудия
Год выпуска: 1945
Жанр: Военный, Драма
Описание фильма:
Годы оккупации Польши немецко-фашистскими захватчиками. Антифашист Зигмунд Големба, приняв имя своего убитого друга Колосовского, встает в ряды народных мстителей. Умело маскируясь, он взрывает немецкие штабы, освобождает пленных поляков, убивает гестаповских генералов. Имя Колосовского становится для народа символом мести и ненависти к захватчикам.
Режиссер: Борис Дмоховский, Сигизмунд Навроцкий
Актеры: Борис Дмоховский, Владимир Освецимский, Владимир Шишкин, Дмитрий Голубинский, Чеслав Сушкевич, П. Скороход, Ирена Мурова, Алексей Добронравов, Б. Гончаров, Ганс Клеринг, Дмитрий Милютенко, Михаил Высоцкий, Михаил Роменский, Евгения Опалова, Сергей Петров, Алексей Таршин, М. Гродский, Михаил Романов, Борис Добронравов
Продолжительность: 01:18:32

Видеокодек: DivX 5
Битрейт видео: ~1958 Кбит/сек
Размер кадра: 720x544
Качество видео: DVDRip
Аудиокодек: MP3, 2 ch
Битрейт аудио: 128 Кбит/сек

MediaInfo:

Общее
Полное имя : G:\new 092012\Зигмунд Колосовский (1945)\Зигмунд Колосовский (1945).avi
Формат : AVI
Формат/Информация : Audio Video Interleave
Размер файла : 1,15 Гбайт
Продолжительность : 1 ч. 18 м.
Общий поток : 2096 Кбит/сек
Программа кодирования : FairUse Wizard - http://fairusewizard.com
Библиотека кодирования : The best and REALLY easy backup tool
Видео
Идентификатор : 0
Формат : MPEG-4 Visual
Параметр BVOP формата : 2
Параметр QPel формата : Нет
Параметр GMC формата : Без точки перехода
Параметр матрицы формата : Default (H.263)
Идентификатор кодека : DX50
Идентификатор кодека/Подсказка : DivX 5
Продолжительность : 1 ч. 18 м.
Битрейт : 1958 Кбит/сек
Ширина : 720 пикселей
Высота : 544 пикселя
Соотношение сторон : 4:3
Частота кадров : 25,000 кадров/сек
Цветовое пространство : YUV
Субдискретизация насыщенности : 4:2:0
Битовая глубина : 8 бит
Тип развёртки : Прогрессивная
Метод сжатия : С потерями
Бит/(Пиксели*Кадры) : 0.200
Размер потока : 1,07 Гбайт (93%)
Библиотека кодирования : DivX 1328m
Аудио
Идентификатор : 1
Формат : MPEG Audio
Версия формата : Version 1
Профиль формата : Layer 3
Режим : Joint stereo
Расширение режима : MS Stereo
Идентификатор кодека : 55
Идентификатор кодека/Подсказка : MP3
Продолжительность : 1 ч. 18 м.
Вид битрейта : Постоянный
Битрейт : 128 Кбит/сек
Каналы : 2 канала
Частота : 48,0 КГц
Метод сжатия : С потерями
Размер потока : 71,9 Мбайт (6%)
Выравнивание : Соединение по промежуткам
Продолжительность промежутка : 40 мс. (1,00 видеокадр)
Время предзагрузки промежутка : 504 мс.
Библиотека кодирования : LAME3.97
Настройки программы : -m j -V 4 -q 2 -lowpass 17 -b 128
Скриншоты:
         
         
Все релизы Зигмунд Колосовский на nnm-club
Время раздачи: С 09:00 до 23:00
Вне форума [Профиль] [ЛС]
Показать сообщения:    
Ответить на тему

Текущее время: Сегодня 19:43

Часовой пояс: GMT + 3



Вы не можете начинать темы
Вы не можете отвечать на сообщения
Вы не можете редактировать свои сообщения
Вы не можете удалять свои сообщения
Вы не можете голосовать в опросах
Вы не можете прикреплять файлы к сообщениям
Вы не можете скачивать файлы