Сегодня идет свободное скачивание без начисления Download

Братушка (1976) TVRip

Ответить на тему
 
Автор
Сообщение

Omen ®

Стаж: 6 лет

Сообщений: 184329

Торрент-статистика

Пост 13-Янв-2013 10:25

[Цитировать]

-Братушка (1976) TVRip- Русское название: Братушка
Год выпуска: 1976
Жанр: Драма, военный
Выпущено: СССР, Болгария, Беларусьфильм, Boyana Film, Sofia Film Studios
Описание фильма:
Фильм повествует об одном из эпизодов освобождения Болгарии советскими солдатами в сентябре 1944 года. У следующей в тыловом обозе конной повозки Алеся Казанка ломается колесо и ему приходится завернуть в ближайшую деревню. Жители деревни давно уже ждут освободителей и устраивают Алесю торжественную встречу. Местные мастера ставят на его телегу новое колесо – красивое, расписное. Казанка просит подвести до города студент Живко, которого сослали сюда прежние власти за подпольную работу. У Алеся уже есть одна пассажирка – румынка Марика, освобожденная советскими бойцами из фашистского плена. Вскоре у троих путешественников появляется еще один попутчик - в плен Казанку сдается немецкий солдат Иоганн. Прежде чем герои фильма доберутся до города, произойдет еще много встреч и событий...
Режиссер: Игорь Добролюбов
Актеры: Анатолий Кузнецов, Светлана Тома, Стефан Данаилов, Владимир Басов, Иван Гайдарджиев, Иван Григоров, Владимир Давчев, Игорь Добролюбов, Никола Тодев, Милка Туйкова, Николай Клисуров, Пенко Пенков, Иван Цветарский
Продолжительность: 01:15:58

Видеокодек: DivX 5
Битрейт видео: ~1500 kb/s
Размер кадра: 704 x 528
Качество видео: TVRip
Аудиокодек: MP3, 2 ch
Битрейт аудио: 128 kb/s

Награды

Премия МКФ в Варне (1977) за лучшее исполнение мужской роли Анатолию Кузнецову,
Серебряная медаль имени Довженко в 1976 году Анатолию Кузнецову за роль Казанка,
Приз за лучшую женскую роль на МКФ в Варне (Болгария) (1977) Светлане Тома.
Золотой Почётный знак Болгарии.

MediaInfo

Общее
Полное имя : Bratushka.1975.DivX.TVRip.avi
Формат : AVI
Формат/Информация : Audio Video Interleave
Размер файла : 890 Мбайт
Продолжительность : 1 ч. 15 м.
Общий поток : 1638 Кбит/сек
Библиотека кодирования : VirtualDub-MPEG2 build 24600/release
Видео
Идентификатор : 0
Формат : MPEG-4 Visual
Параметр BVOP формата : 1
Параметр QPel формата : Нет
Параметр GMC формата : Без точки перехода
Параметр матрицы формата : Default (H.263)
Режим смешивания : Сжатый битовый поток
Идентификатор кодека : DX50
Идентификатор кодека/Подсказка : DivX 5
Продолжительность : 1 ч. 15 м.
Битрейт : 1500 Кбит/сек
Ширина : 704 пикселя
Высота : 528 пикселей
Соотношение сторон : 4:3
Частота кадров : 25,000 кадров/сек
Цветовое пространство : YUV
Субдискретизация насыщенности : 4:2:0
Битовая глубина : 8 бит
Тип развёртки : Прогрессивная
Метод сжатия : С потерями
Бит/(Пиксели*Кадры) : 0.161
Размер потока : 815 Мбайт (92%)
Библиотека кодирования : DivX 6.6.1.4
Аудио
Идентификатор : 1
Формат : MPEG Audio
Версия формата : Version 1
Профиль формата : Layer 3
Режим : Joint stereo
Расширение режима : MS Stereo
Идентификатор кодека : 55
Идентификатор кодека/Подсказка : MP3
Продолжительность : 1 ч. 15 м.
Вид битрейта : Постоянный
Битрейт : 128 Кбит/сек
Каналы : 2 канала
Частота : 48,0 КГц
Метод сжатия : С потерями
Размер потока : 69,6 Мбайт (8%)
Выравнивание : Разделение по промежуткам
Продолжительность промежутка : 40 мс. (1,00 видеокадр)
Время предзагрузки промежутка : 500 мс.
Библиотека кодирования : LAME3.98.2ЄЄЄЄЄЄЄЄЄЄ
Скриншоты:          Время раздачи: С 13:00 до 21:00 (до 5 скачавших)Приятного просмотра!
Вне форума [Профиль] [ЛС]
Показать сообщения:    
Ответить на тему

Текущее время: Сегодня 16:12

Часовой пояс: GMT + 3



Вы не можете начинать темы
Вы не можете отвечать на сообщения
Вы не можете редактировать свои сообщения
Вы не можете удалять свои сообщения
Вы не можете голосовать в опросах
Вы не можете прикреплять файлы к сообщениям
Вы не можете скачивать файлы