Today is a free download without charge Download

Человек № 217 (1944) SATRip

Reply to topic
 
Author
Message

Omen ®

Longevity: 6 years 5 months

Posts: 171875

Торрент-статистика

Post 13-Jan-2013 10:25

[Quote]

-Человек № 217 (1944) SATRip- Русское название: Человек № 217
Год выпуска: 1944
Жанр: Военный, Драма
Описание фильма:В 1942 году героиня Фильма Таня под номером 217 была отправлена в Германию вместе с очередной партией угнанных советских людей. Она попала в семью бакалейщика Краусса, у которого дворником работал советский ученый-математик Сергей Иванович. Помогая друг другу, они мечтали весной убежать, добраться до родины. Смерть Сергея Ивановича, убитого хозяйским сыном Максом и его дружком Куртом, вызвала в Тане твердую решимость мстить за погибшего и бороться за свою свободу. Хладнокровно убив Макса и Курта, Таня убегает во время налета советской авиации.
Доп. информация: Автор сценария: Евгений Габрилович, Михаил Ромм
Оператор: Борис Волчек, Эра Савельева
Композитор: Арам Хачатурян
Художник-постановщик: Евгений Еней, Абрам Фрейдин
Производство: Ташкентская киностудия
Продолжительность: 01:39:28

Видеокодек: Xvid
Битрейт видео: ~1801 Кбит/сек
Размер кадра: 720x552
Качество видео: SATRip
Аудиокодек: MP3, 1 ch
Битрейт аудио: 56,0 Кбит/сек

MediaInfo:

Общее
Полное имя : G:\new 092012\!\Человек № 217\Человек № 217.avi
Формат : AVI
Формат/Информация : Audio Video Interleave
Профиль формата : OpenDML
Размер файла : 1,41 Гбайт
Продолжительность : 1 ч. 39 м.
Общий поток : 2036 Кбит/сек
Видео
Идентификатор : 0
Формат : MPEG-4 Visual
Профиль формата : Advanced [email protected]
Параметр BVOP формата : 2
Параметр QPel формата : Нет
Параметр GMC формата : Без точки перехода
Параметр матрицы формата : Default (H.263)
Идентификатор кодека : XVID
Идентификатор кодека/Подсказка : XviD
Продолжительность : 1 ч. 39 м.
Битрейт : 1801 Кбит/сек
Ширина : 720 пикселей
Высота : 552 пикселя
Соотношение сторон : 4:3
Частота кадров : 25,000 кадров/сек
Цветовое пространство : YUV
Субдискретизация насыщенности : 4:2:0
Битовая глубина : 8 бит
Тип развёртки : Прогрессивная
Метод сжатия : С потерями
Бит/(Пиксели*Кадры) : 0.181
Размер потока : 1,25 Гбайт (88%)
Библиотека кодирования : XviD 1.2.1 (UTC 2008-12-04)
Аудио
Идентификатор : 1
Формат : MPEG Audio
Версия формата : Version 2
Профиль формата : Layer 3
Идентификатор кодека : 55
Идентификатор кодека/Подсказка : MP3
Продолжительность : 1 ч. 39 м.
Вид битрейта : Постоянный
Битрейт : 56,0 Кбит/сек
Каналы : 1 канал
Частота : 24,0 КГц
Метод сжатия : С потерями
Размер потока : 39,8 Мбайт (3%)
Выравнивание : Соединение по промежуткам
Продолжительность промежутка : 24 мс. (0,60 видеокадр)
Скриншоты:
         
         
Время раздачи: С 09:00 до 23:00
Other forum [Profile] [PM]
Similar theme
Forum Topic Author Torrent Replies Last Post
./templates/default/images/folder_dl.gif Философия, Религия, Эзотерика Дугин А.Г. - Ноомахия. Войны ума. Германский Логос. Человек апофатический. [2015, DjVu, RUS] Omen
1 | 0

0 | 1173

0

2016-09-18 01:01
Omen Latest
Display posts from previous:    
Reply to topic

The time now is: Today 05:53

All times are GMT + 3 Hours



You cannot post new topics in this forum
You cannot reply to topics in this forum
You cannot edit your posts in this forum
You cannot delete your posts in this forum
You cannot vote in polls in this forum
You cannot attach files in this forum
You cannot download files in this forum