Сегодня идет свободное скачивание без начисления Download

Кочующий фронт (1971) SATRip

Ответить на тему
 
Автор
Сообщение

Omen ®

Стаж: 6 лет

Сообщений: 184329

Торрент-статистика

Пост 13-Янв-2013 10:25

[Цитировать]

-Кочующий фронт (1971) SATRip- Русское название: Кочующий фронт
Год выпуска: 1971
Жанр: Военный, драма, приключения
Выпущено: СССР, Свердловская киностудия
Описание фильма:
В 1919 год. 32 сибирских села объединились в Советскую Баджейскую республику, на уничтожение которой Колчак бросил 12-тысячную армию. Во главе партизанской армии встал легендарный командарм Петр Щетинкин, привлекший на свою сторону военного министра Монголии Максаржава...
Режиссер: Барас Халзанов
Актеры: Пётр Глебов, Юрий Соломин, Асанбек Умуралиев, Евгений Новиков, Роман Хомятов, Леонид Кулагин, Туган Реджиметов, Валентин Кулик, Афанасий Кочетков, Нурмухан Жантурин, Николай Прокопович, Жанна Керимтаева, Инга Будкевич, Шавкат Газиев, Григорий Гецов, Геннадий Данзанов, Александр Дольский, Наталья Кустинская, Николай Бурнаков, Вера Турчанинова, Борис Руднев, Барас Халзанов, Юрий Васильев, Гомбожап Цыдынжапов, Виктор Черноскутов, Георгий Энгель
Продолжительность: 01:27:23

Видеокодек: Xvid
Битрейт видео: ~2100 kb/s
Размер кадра: 704 x 416
Качество видео: SATRip
Аудиокодек: AC3 2.0
Битрейт аудио: 192 kb/s

MediaInfo

Общее
Полное имя : Ko4ujuwij.front.1971.XviD.SATRip.avi
Формат : AVI
Формат/Информация : Audio Video Interleave
Размер файла : 1,46 Гбайт
Продолжительность : 1 ч. 27 м.
Общий поток : 2397 Кбит/сек
Программа кодирования : VirtualDubMod 1.5.10.3 | www.virtualdub-fr.org || (build 2550/release)
Библиотека кодирования : VirtualDubMod build 2550/release
Видео
Идентификатор : 0
Формат : MPEG-4 Visual
Профиль формата : Advanced [email protected]
Параметр BVOP формата : 1
Параметр QPel формата : Нет
Параметр GMC формата : Без точки перехода
Параметр матрицы формата : Default (MPEG)
Идентификатор кодека : XVID
Идентификатор кодека/Подсказка : XviD
Продолжительность : 1 ч. 27 м.
Битрейт : 2195 Кбит/сек
Ширина : 704 пикселя
Высота : 416 пикселей
Соотношение сторон : 1,692
Частота кадров : 25,000 кадров/сек
Цветовое пространство : YUV
Субдискретизация насыщенности : 4:2:0
Битовая глубина : 8 бит
Тип развёртки : Прогрессивная
Метод сжатия : С потерями
Бит/(Пиксели*Кадры) : 0.300
Размер потока : 1,34 Гбайт (92%)
Библиотека кодирования : XviD 1.2.1 (UTC 2008-12-04)
Аудио
Идентификатор : 1
Формат : AC-3
Формат/Информация : Audio Coding 3
Расширение режима : CM (complete main)
Параметр Endianness формата : Big
Идентификатор кодека : 2000
Продолжительность : 1 ч. 27 м.
Вид битрейта : Постоянный
Битрейт : 192 Кбит/сек
Каналы : 2 канала
Расположение каналов : Front: L R
Частота : 48,0 КГц
Битовая глубина : 16 бит
Метод сжатия : С потерями
Размер потока : 120 Мбайт (8%)
Выравнивание : Разделение по промежуткам
Продолжительность промежутка : 40 мс. (1,00 видеокадр)
Время предзагрузки промежутка : 500 мс.
Скриншоты:          Время раздачи: С 13:00 до 21:00 (до 5 скачавших)Приятного просмотра!
Вне форума [Профиль] [ЛС]
Показать сообщения:    
Ответить на тему

Текущее время: Сегодня 16:07

Часовой пояс: GMT + 3



Вы не можете начинать темы
Вы не можете отвечать на сообщения
Вы не можете редактировать свои сообщения
Вы не можете удалять свои сообщения
Вы не можете голосовать в опросах
Вы не можете прикреплять файлы к сообщениям
Вы не можете скачивать файлы