Сегодня идет свободное скачивание без начисления Download

Отклонение - ноль (1977) SATRip

Ответить на тему
 
Автор
Сообщение

Omen ®

Стаж: 6 лет

Сообщений: 184329

Торрент-статистика

Пост 13-Янв-2013 10:25

[Цитировать]

-Отклонение - ноль (1977) SATRip- Русское название: Отклонение - ноль
Год выпуска: 1977
Жанр: Драма
Описание фильма:
Летчик-испытатель Антон Блыш перед испытаниями новой модели самолета получает известие о гибели своей жены. В его отсутствии врач - жена друга и дублера Виноградова - убеждает начальство в том, что Блыша надо снимать с испытаний. Но вернувшись к работе, Антон сам предоставляет право первенства другу, прекрасному летчику-испытателю, которому пока не везло
Режиссер: Александр Столпер
Актеры: Георгий Тараторкин, Ольга Яковлева, Альберт Филозов, Любовь Виролайнен, Эдишер Магалашвили, Виктор Зубарев, Юрий Гусев, Павел Махотин, Нина Попова, Виктор Сергачёв, Надежда Смирнова, Виктор Мурганов, Любовь Писаренко
Продолжительность: 01:16:21

Видеокодек: MPEG-2
Битрейт видео: ~2198 Кбит/сек
Размер кадра: 720x576
Качество видео: SATRip
Аудиокодек: MP2, 2 ch
Битрейт аудио: 192 Кбит/сек

MediaInfo:

Общее
Полное имя : G:\new 092012\!\Отклонение - ноль\Отклонение ноль SatRip\Отклонение ноль.mpg
Формат : MPEG-PS
Размер файла : 1,30 Гбайт
Продолжительность : 1 ч. 16 м.
Режим общего битрейта : Переменный
Общий поток : 2438 Кбит/сек
Библиотека кодирования : (c) 1998-2012 Womble Multimedia, Inc. / MPEG Video Wizard DVD 5.0.1.100 (03/2011) / Aug 9 2012
Видео
Идентификатор : 224 (0xE0)
Формат : MPEG Video
Версия формата : Version 2
Профиль формата : [email protected]
Параметр BVOP формата : Да
Параметр матрицы формата : Выборочная
Параметр GOP формата : Variable
Продолжительность : 1 ч. 16 м.
Вид битрейта : Переменный
Битрейт : 2198 Кбит/сек
Максимальный битрейт : 5000 Кбит/сек
Ширина : 720 пикселей
Высота : 576 пикселей
Соотношение сторон : 4:3
Частота кадров : 25,000 кадров/сек
Стандарт вещания : PAL
Цветовое пространство : YUV
Субдискретизация насыщенности : 4:2:0
Битовая глубина : 8 бит
Тип развёртки : Чересстрочная
Порядок развёртки : Верхнее поле первое
Метод сжатия : С потерями
Бит/(Пиксели*Кадры) : 0.212
Размер потока : 1,17 Гбайт (90%)
Выравнивание : (c) 1998-2012 Womble Multimedia, Inc. / MPEG Video Wizard DVD 5.0.1.100 (03/2011) / Aug 9 2012
Заголовок : (c) 1998-2012 Womble Multimedia, Inc. / MPEG Video Wizard DVD 5.0.1.100 (03/2011) / Aug 9 2012
Библиотека кодирования : (c) 1998-2012 Womble Multimedia, Inc. / MPEG Video Wizard DVD 5.0.1.100 (03/2011) / Aug 9 2012
Аудио
Идентификатор : 192 (0xC0)
Формат : MPEG Audio
Версия формата : Version 1
Профиль формата : Layer 2
Продолжительность : 1 ч. 16 м.
Вид битрейта : Постоянный
Битрейт : 192 Кбит/сек
Каналы : 2 канала
Частота : 48,0 КГц
Метод сжатия : С потерями
Размер потока : 105 Мбайт (8%)
Меню
Скриншоты:
         
         
Время раздачи: С 09:00 до 23:00
Вне форума [Профиль] [ЛС]
Показать сообщения:    
Ответить на тему

Текущее время: Сегодня 14:59

Часовой пояс: GMT + 3



Вы не можете начинать темы
Вы не можете отвечать на сообщения
Вы не можете редактировать свои сообщения
Вы не можете удалять свои сообщения
Вы не можете голосовать в опросах
Вы не можете прикреплять файлы к сообщениям
Вы не можете скачивать файлы